<?xml version="1.0" standalone="no"?>
<!DOCTYPE svg PUBLIC "-//W3C//DTD SVG 1.1//EN" "http://www.w3.org/Graphics/SVG/1.1/DTD/svg11.dtd" >
<svg xmlns="http://www.w3.org/2000/svg" xmlns:xlink="http://www.w3.org/1999/xlink" version="1.1">
<metadata></metadata>
<defs>
<font id="cooper_blackitalic" horiz-adv-x="1208" >
<font-face units-per-em="2048" ascent="1638" descent="-410" />
<missing-glyph horiz-adv-x="604" />
<glyph horiz-adv-x="0" />
<glyph unicode="&#xd;" horiz-adv-x="681" />
<glyph unicode=" "  horiz-adv-x="604" />
<glyph unicode="&#x09;" horiz-adv-x="604" />
<glyph unicode="&#xa0;" horiz-adv-x="604" />
<glyph unicode="!" horiz-adv-x="686" d="M123 197q4 100 75.5 163.5t168 63.5t162 -63.5t61.5 -163.5q-4 -104 -76 -172t-168 -68t-161.5 67.5t-61.5 172.5zM205 1198q0 133 73.5 199.5t210.5 66.5q109 0 170.5 -57t59.5 -164q-2 -98 -38 -215t-74 -195.5t-99 -193.5q-47 -90 -111 -90q-59 0 -94 96 q-98 254 -98 553z" />
<glyph unicode="&#x22;" horiz-adv-x="1159" d="M201 1130q0 143 66.5 238.5t181.5 95.5q106 0 152 -74.5t46 -166.5q0 -98 -49 -230.5t-112.5 -225.5t-104.5 -93q-57 0 -118.5 165t-61.5 291zM760 1130q0 143 66.5 238.5t181.5 95.5q106 0 152 -74.5t46 -166.5q0 -98 -49 -230.5t-112.5 -225.5t-104.5 -93 q-57 0 -118.5 165t-61.5 291z" />
<glyph unicode="#" d="M217 414v78q0 39 39 38h115q35 0 43 39l10 76q2 16 -7 27.5t-24 11.5h-92q-39 0 -39 39v78q0 39 39 39h115q35 0 43 39l37 274q6 39 45 39h77q16 0 25.5 -12.5t7.5 -26.5l-41 -276q-2 -14 6.5 -25.5t24.5 -11.5h72q35 0 43 39l39 274q6 39 45 39h78q16 0 25 -12.5 t7 -26.5l-39 -276q-2 -14 6.5 -25.5t24.5 -11.5h92q39 0 39 -39v-78q0 -39 -39 -39h-114q-14 0 -26.5 -11t-14.5 -28l-11 -78q-2 -14 6.5 -25.5t24.5 -11.5h92q39 0 39 -38v-78q0 -39 -39 -39h-119q-14 0 -26.5 -11.5t-14.5 -27.5l-38 -297q-6 -39 -45 -39h-78 q-16 0 -25.5 12.5t-7.5 26.5l41 297q2 16 -7 27.5t-24 11.5h-74q-14 0 -26 -11.5t-15 -27.5l-40 -297q-6 -39 -46 -39h-77q-16 0 -25.5 12.5t-7.5 26.5l43 297q2 16 -7.5 27.5t-23.5 11.5h-92q-39 0 -39 39zM567 567q-2 -14 6.5 -25.5t24.5 -11.5h72q35 0 43 39l10 76 q2 16 -7 27.5t-24 11.5h-74q-14 0 -26 -11t-14 -28z" />
<glyph unicode="$" d="M63 250q0 63 41 120.5t101 57.5q51 0 76 -41q4 -8 14 -22q41 -66 65.5 -97.5t76.5 -62.5t116 -31q49 0 90 31t41 78q0 70 -104 118q-379 188 -379 443q0 152 94 253t248 150q4 2 14 5t14 4t11.5 6.5t10.5 10.5t6 14t3 22q4 88 25 102q25 16 121 8q16 -2 37.5 -2t33.5 -1 t25.5 -4t18.5 -11.5t5 -24.5l-8 -94q4 -18 39 -22q53 -8 119.5 -30t129 -66t62.5 -95q0 -59 -44 -127t-99 -68q-37 0 -83 44.5t-101.5 88.5t-118.5 44q-45 0 -75 -23.5t-30 -66.5q0 -51 52.5 -91.5t127 -75t148.5 -77.5t126 -122t52 -185q0 -156 -110.5 -275t-268.5 -149 q-57 -10 -59 -13q-10 -4 -16 -47q-6 -59 -20.5 -72.5t-78.5 -13.5l-96 -2q-59 0 -69.5 31t4.5 88q2 16 -54 25q-84 12 -153.5 39.5t-125 87t-55.5 141.5z" />
<glyph unicode="%" horiz-adv-x="1576" d="M55 1004q0 201 137.5 330.5t337.5 129.5q137 0 230.5 -70.5t93.5 -203.5q0 -201 -138 -331t-339 -130q-137 0 -229.5 70.5t-92.5 204.5zM322 43q0 18 22 55l94 148q109 168 217.5 353t240.5 420.5t202 354.5q27 51 50 70.5t75 19.5q98 0 98 -47q0 -20 -14.5 -49 t-40 -66.5t-27.5 -41.5q-51 -84 -217 -354.5t-273.5 -456t-197.5 -359.5q-2 -4 -10.5 -20.5t-11.5 -21.5t-11 -18.5t-14 -17.5t-15.5 -11t-20.5 -9t-26 -2q-37 0 -78.5 12t-41.5 41zM377 940q0 -63 45 -63q25 0 41 21.5t21 38.5t12 48q37 164 36 256q0 76 -47 76 q-43 0 -67 -78q-41 -141 -41 -299zM793 264q0 201 137 331t338 130q137 0 230 -70.5t93 -203.5q0 -201 -138 -331t-339 -130q-137 0 -229 70.5t-92 203.5zM1114 201q0 -64 45 -64q25 0 41.5 21.5t21.5 39t11 48.5q37 164 37 256q0 76 -47 76q-43 0 -68 -78 q-41 -141 -41 -299z" />
<glyph unicode="&#x26;" horiz-adv-x="1937" d="M102 600q2 182 86 284.5t256 159.5q29 10 37 20.5t8 39.5q0 143 68 215q121 133 346 133q143 0 252 -59.5t109 -137.5q0 -41 -31 -74.5t-72 -33.5q-25 0 -79 28.5t-95 28.5q-47 0 -77.5 -29.5t-30.5 -76.5q0 -37 17 -60.5t39.5 -34t40 -25.5t17.5 -34q0 -41 -50 -81 t-105 -40q-35 0 -76 19.5t-47 19.5q-27 0 -62 -80q-31 -70 -30 -159q0 -160 94 -277t250 -117q80 0 144.5 48.5t64.5 125.5q0 39 -25 67t-64 28q-33 0 -71.5 -27t-57.5 -27q-39 0 -60 34t-21 77q0 39 19 74t56 62.5t67 44t73 36.5l356 152q186 76 186 178q0 27 -16 51.5 t-41 24.5q-16 0 -46 -15.5t-48 -15.5q-23 0 -38 20.5t-15 42.5q0 84 90 139.5t180 55.5q131 0 206.5 -90t75.5 -223q0 -162 -105 -281t-251 -147q-27 -4 -58.5 -21.5t-31.5 -40.5q0 -8 35 -62.5t35 -103.5q0 -115 -82 -210t-199 -152q-217 -102 -475 -103q-143 0 -276.5 41 t-240 117t-170 199t-61.5 272z" />
<glyph unicode="'" horiz-adv-x="626" d="M201 1130q0 143 66.5 238.5t181.5 95.5q106 0 152 -74.5t46 -166.5q0 -98 -49 -230.5t-112.5 -225.5t-104.5 -93q-57 0 -118.5 165t-61.5 291z" />
<glyph unicode="(" horiz-adv-x="1159" d="M268 594q0 410 170 668q248 371 582 370q51 0 96 -8t86 -40t41 -83q0 -29 -15 -49t-44 -20q-16 0 -55 8t-64 8q-59 0 -112.5 -48t-89.5 -123t-58.5 -139.5t-34.5 -125.5q-82 -367 -82 -609q0 -416 244 -415q29 0 85 8t85 8q59 0 59 -80q0 -45 -23.5 -71.5t-73.5 -37 t-74.5 -11.5t-82.5 -1q-176 0 -303 62.5t-198.5 175.5t-104.5 249t-33 304z" />
<glyph unicode=")" horiz-adv-x="1159" d="M45 -66q0 29 15 49.5t44 20.5q16 0 55.5 -8t63.5 -8q59 0 112.5 48t89.5 122.5t58.5 139t34.5 126.5q82 367 82 608q0 416 -244 416q-29 0 -85 -8t-85 -8q-59 0 -59 79q0 45 23.5 72t73.5 37t75 11t82 1q176 0 303 -62.5t198.5 -175t104.5 -248.5t33 -304 q0 -410 -170 -668q-248 -371 -582 -371q-51 0 -96 8.5t-86 40t-41 82.5z" />
<glyph unicode="*" horiz-adv-x="1484" d="M500 1208q0 27 31.5 82.5t58.5 55.5q31 0 97.5 -45.5t74.5 -45.5t14 7.5t9 19.5t4.5 22.5t2.5 22.5t1 14q0 4 3 30t5 35t9 26.5t19.5 24.5t30.5 7q129 0 129 -65q0 -23 -17.5 -88.5t-17.5 -82t19 -16.5q23 0 88 13.5t90 13.5t39 -13.5t18 -29.5t6 -43l7 -61 q0 -43 -55.5 -53.5t-110 -11.5t-54.5 -23q0 -8 44.5 -84t44.5 -107q0 -29 -64.5 -61.5t-85.5 -32.5q-33 0 -71 103.5t-56 103.5q-10 0 -87 -72t-103 -72q-25 0 -69 51.5t-44 73.5q0 31 40 66t80 63.5t40 43t-42 30.5t-85 41t-43 57z" />
<glyph unicode="+" d="M150 524q0 45 5 69.5t23.5 35t32.5 12.5t53 2h19h139q86 0 96 10q8 8 8 95v139v18q0 37 2 52.5t12.5 34t35 23.5t69.5 5t69.5 -5t35 -23.5t12.5 -33t2 -53.5v-18v-139q0 -86 10 -95q12 -10 94 -10h140h18q37 0 52.5 -2t33.5 -12.5t23.5 -35t5.5 -69.5t-5.5 -69.5 t-23.5 -34.5t-32.5 -12t-53.5 -2h-18h-140q-86 0 -94 -9q-10 -10 -10 -96v-139v-19q0 -37 -2 -52t-12.5 -33.5t-35 -23.5t-69.5 -5t-69.5 5t-35 23.5t-12.5 32.5t-2 53v19v139q0 90 -8 96q-10 8 -96 9h-139h-19q-37 0 -52 2t-33.5 12t-23.5 34.5t-5 69.5z" />
<glyph unicode="," horiz-adv-x="604" d="M102 215q0 102 58.5 161.5t161.5 59.5q119 0 180 -76.5t63 -199.5q2 -104 -59.5 -236.5t-139 -219.5t-126.5 -87q-29 0 -67 36t-38 62q0 23 21 47q102 134 102 193q0 27 -24.5 47.5t-53 36.5t-53.5 61t-25 115z" />
<glyph unicode="-" horiz-adv-x="604" d="M43 426q4 90 58.5 214t121.5 116q8 -2 29 -2t29 -2l200 -15q37 0 85 6.5t52 6.5q35 0 35 -50q0 -74 -51 -207t-106 -128q-2 0 -21.5 2t-28.5 4q-162 10 -177 11t-183 -3q-47 0 -43 47z" />
<glyph unicode="." horiz-adv-x="604" d="M80 205q4 100 75.5 163.5t168 63.5t162 -63.5t61.5 -163.5q-4 -104 -76 -172t-168 -68t-161.5 67.5t-61.5 172.5z" />
<glyph unicode="/" horiz-adv-x="856" d="M41 -125q-2 20 27 82l165 336l342 788l107 267q16 47 34.5 66.5t65.5 21.5q176 6 181 -62q0 -35 -21 -76l-170 -352l-414 -948q-39 -113 -53 -133q-31 -55 -98 -58q-53 -2 -108.5 13.5t-57.5 54.5z" />
<glyph unicode="0" d="M106 508q0 293 177.5 510t464.5 217q219 0 345 -143.5t126 -378.5q0 -293 -177 -510t-464 -217q-219 0 -345.5 143t-126.5 379zM530 315q0 -6 2.5 -30.5t5.5 -34.5t9 -26.5t19.5 -22.5t31.5 -6q70 0 92 90q35 131 62.5 342t19.5 278q0 6 -2 31t-5 35t-9 26.5t-19.5 22.5 t-31.5 6q-70 0 -93 -90q-35 -131 -62.5 -342t-19.5 -279z" />
<glyph unicode="1" d="M172 119q0 55 26.5 71.5t86.5 22.5q53 6 73.5 18.5t43 53t40.5 200.5l23 242q0 117 -72 117q-23 0 -67.5 -22.5t-63.5 -22.5q-29 0 -43 26.5t-14 59.5q0 47 21.5 79.5t46 49t73.5 41.5q104 51 311 109.5t306 58.5q59 0 88.5 -20.5t29.5 -76.5q0 -57 -67 -104 q-37 -23 -46.5 -38t-17.5 -64q-41 -229 -61 -566q-4 -78 18.5 -98t102.5 -25q43 -2 61.5 -6t35.5 -22.5t17 -55.5q0 -164 -563 -163h-22q-367 -4 -367 135z" />
<glyph unicode="2" d="M80 96q0 51 65 117q4 2 46 40t65 59.5t71 66.5t79.5 77.5t74.5 79t72 84t55.5 77.5t40 75t13.5 64q0 41 -25 65.5t-66 24.5q-55 0 -116.5 -39t-113.5 -79t-87 -40q-43 0 -77 42t-30 83q8 84 126 167t265.5 130t256.5 45q90 -2 166.5 -24.5t137 -83t60.5 -150.5 q0 -113 -86 -227q-33 -43 -111.5 -121t-139 -139.5t-64.5 -86.5q-2 -14 6 -23t27.5 -12t29.5 -4.5t31 -1.5q31 0 51.5 -1t39 7.5t36.5 26.5q2 2 16.5 23.5t19.5 28t18.5 19.5t26.5 17t30 4q86 0 86 -125q0 -68 -20.5 -166t-74 -191t-125.5 -93q-45 0 -69 47q-18 31 -23 33 q-14 8 -102 8h-443q-6 0 -35.5 -1t-45 0t-44 3t-45 8t-35 16.5t-26.5 28t-8 41.5z" />
<glyph unicode="3" d="M96 23q0 33 21.5 62.5t52.5 29.5q16 0 97 -34t153 -34q117 0 193.5 61.5t76.5 178.5q0 63 -21.5 94t-47 35t-76.5 2q-80 -4 -107.5 16.5t-27.5 100.5q0 31 2 45t14 27.5t37 21.5q80 23 139.5 75t59.5 125q0 45 -27 71t-72 26q-61 0 -115.5 -36t-95.5 -72t-71 -36 q-41 0 -71 38t-30 81q0 113 223 229q203 104 383 105q141 0 245 -66.5t104 -199.5q0 -70 -31 -129.5t-62.5 -95t-31.5 -48.5q0 -18 26.5 -40.5t57 -47t57.5 -76.5t27 -122q0 -274 -197 -436t-477 -162q-57 0 -119.5 9t-131.5 30.5t-113 65.5t-44 106z" />
<glyph unicode="4" d="M45 217q12 113 50 188.5t124 186.5l426 502q70 74 113 113.5t117.5 78.5t152.5 39q47 0 76 -4t54.5 -26.5t23.5 -65.5l-97 -768q-8 -45 -1.5 -54.5t36.5 -9.5q47 0 54 -20q2 -7 2 -15l-19 -223q0 -6 -1 -18t-2 -16.5t-2 -13.5t-3 -11t-6 -8t-8.5 -7.5t-11.5 -3.5t-15 -3 t-21 -1q-49 0 -55 -12q-4 -8 -14 -82q-10 -100 -14 -106q-12 -23 -86 -23h-230q-49 0 -68.5 7t-23.5 28q-4 23 4 93.5t8 74.5q0 8 -4 13t-12 6t-15.5 2t-16.5 0t-11 -1h-387h-4q-18 0 -32.5 2t-39.5 14.5t-36 49.5t-5 94zM377 436q0 -10 10 -18t27.5 -12.5t37 -6.5t41 -3 t38 -1t30.5 2h14q18 0 32 3t23 6.5t16 13.5t11.5 14t7.5 20.5t3 20.5t2 26.5t2 26.5l20 242q8 55 -18 55q-33 0 -165 -172t-132 -217z" />
<glyph unicode="5" d="M156 14q0 82 55 82q14 0 88 -29.5t133 -29.5q82 0 138.5 40t56.5 120q0 90 -60.5 123.5t-165.5 39.5q-31 2 -59.5 0t-53 -1t-43 5.5t-28.5 18.5t-10 41q0 69 76 317l57 193q53 162 68 184q10 16 19 25.5t27.5 13.5t25.5 5t34 3l377 29q4 0 26.5 1t51 3t57.5 8 q25 4 53.5 11.5t46 12.5t21.5 5q27 0 27 -47q0 -57 -19.5 -137t-46.5 -121q-45 -66 -266 -76l-254 -14q-49 -4 -64.5 -18.5t-23.5 -69.5q-6 -41 43 -52q37 -8 98 -4q113 10 215 -25.5t175 -123.5t79 -215q10 -211 -167 -361.5t-404 -150.5q-51 0 -109.5 9t-124 28.5 t-107.5 60.5t-42 96z" />
<glyph unicode="6" d="M152 504q0 283 167 549q61 98 182.5 214.5t203.5 116.5q33 0 106.5 -30.5t73.5 -57.5q0 -16 -25 -41q-178 -201 -217 -319q-18 -55 2 -62q4 -2 6 3q6 0 35 16t80 33.5t115 17.5q147 0 231 -104.5t84 -257.5q0 -248 -168 -422t-414 -174q-213 0 -337.5 148.5t-124.5 369.5 zM569 375q0 -186 80 -187q68 0 107 122t39 210q0 189 -80 189q-68 0 -107 -123t-39 -211z" />
<glyph unicode="7" d="M150 827q-8 90 67.5 260t161.5 177q25 2 63.5 -20.5t118.5 -22.5h461q14 0 61 4t74 4q127 0 127 -82q0 -41 -45 -131l-547 -1200q-14 -31 -21 -43.5t-25.5 -22.5t-47.5 -10q-72 0 -198 58.5t-126 119.5q0 23 31 76l391 678q57 106 58 131q0 14 -9.5 25.5t-27 17.5 t-34.5 9t-42 4t-41 1t-35.5 -1t-25.5 -1q-14 0 -39 -1t-34 -2t-25.5 -3t-23.5 -7t-17.5 -13.5t-17.5 -19.5t-15 -30q-31 -63 -52 -75q-20 -12 -55 -13q-98 0 -110 133z" />
<glyph unicode="8" d="M106 414q0 78 27 142.5t58.5 96t58 56t26.5 34.5q0 13 -12 31q-49 98 -49 160q0 125 81 222t196.5 143.5t238.5 46.5q174 0 308.5 -93.5t134.5 -261.5q0 -68 -30 -125t-59.5 -87.5t-29.5 -39.5q0 -6 32.5 -40.5t65.5 -100.5t33 -149q0 -217 -171 -344.5t-394 -127.5 q-205 0 -360 119t-155 318zM455 410q0 -90 66.5 -157t154.5 -67q51 0 90 28t39 77q0 35 -25.5 63.5t-47 40t-64.5 31.5q-154 88 -172 88q-20 0 -30.5 -39t-10.5 -65zM565 1038q0 -43 58.5 -87t111.5 -66.5t62 -22.5q29 0 28 82q0 74 -38.5 133.5t-108.5 59.5q-43 0 -78 -28 t-35 -71z" />
<glyph unicode="9" d="M106 580q0 281 202 468t485 187q217 0 331.5 -140.5t114.5 -363.5q0 -287 -170 -577q-2 -2 -32.5 -50.5t-68.5 -101.5t-85 -110.5t-96.5 -95.5t-86.5 -38q-43 0 -114.5 37t-71.5 72q0 16 27 43q49 53 112.5 150.5t63.5 144.5q0 20 -15 20q-2 0 -82.5 -29.5t-158.5 -29.5 q-166 0 -260.5 121t-94.5 293zM555 582q0 -16 2 -36t8 -50.5t22.5 -51t41.5 -20.5q47 0 81.5 51t51 126t25 136.5t8.5 104.5q0 16 -2 35.5t-8.5 50t-23 51t-40.5 20.5q-47 0 -82 -51t-51.5 -125.5t-24.5 -136t-8 -104.5z" />
<glyph unicode=":" horiz-adv-x="604" d="M90 197q8 100 83 163.5t171 63.5t158.5 -63.5t54.5 -163.5q-8 -104 -83 -172t-171 -68t-158.5 67.5t-54.5 172.5zM176 831q8 100 83 164t171 64t158.5 -63.5t54.5 -164.5q-8 -104 -83 -171.5t-171 -67.5t-158.5 67.5t-54.5 171.5z" />
<glyph unicode=";" horiz-adv-x="604" d="M102 215q0 102 58.5 161.5t161.5 59.5q119 0 180 -76.5t63 -199.5q2 -104 -59.5 -236.5t-139 -219.5t-126.5 -87q-29 0 -67 36t-38 62q0 23 21 47q102 134 102 193q0 27 -24.5 47.5t-53 36.5t-53.5 61t-25 115zM172 831q4 100 75.5 164t168 64t162 -63.5t61.5 -164.5 q-4 -104 -75.5 -171.5t-168 -67.5t-162 67.5t-61.5 171.5z" />
<glyph unicode="&#x3c;" d="M150 524q0 4 1 16.5t1 18.5t1 18.5t4 18.5t6 14t8 14.5t13 8.5l838 364q59 23 78 23q20 0 30.5 -34t10.5 -66v-64q0 -39 -15.5 -59.5t-62.5 -38.5l-537 -234l537 -233q47 -18 62.5 -39t15.5 -57v-66q0 -33 -10.5 -66.5t-30.5 -33.5q-18 0 -78 22l-838 365q-8 2 -13 8 t-8 14t-6 14.5t-4 18.5t-1 18.5t-1 18.5t-1 16z" />
<glyph unicode="=" d="M150 324q0 45 5 69.5t23.5 34.5t32.5 12t53 2h19h725h18q37 0 52.5 -2t33.5 -12t23.5 -34.5t5.5 -69.5t-5.5 -70t-23.5 -35t-32.5 -12t-53.5 -2h-18h-725h-19q-37 0 -52 2t-33.5 12t-23.5 35t-5 70zM150 725q0 45 5 69.5t23.5 35t32.5 12.5t53 2h19h725h18q37 0 52.5 -2 t33.5 -12.5t23.5 -35t5.5 -69.5t-5.5 -69.5t-23.5 -35t-32.5 -12.5t-53.5 -2h-18h-725h-19q-37 0 -52 2t-33.5 12.5t-23.5 35t-5 69.5z" />
<glyph unicode="&#x3e;" d="M150 129v64q0 39 15 59.5t62 38.5l537 233l-537 234q-47 18 -62 38.5t-15 57.5v66q0 33 10 66.5t30 33.5q18 0 78 -23l838 -364q8 -2 13 -8.5t8 -14.5t6.5 -14t4.5 -18.5t1 -18.5t1 -18.5t1 -16.5t-1 -16t-1 -18.5t-1 -18.5t-4.5 -18.5t-6.5 -14.5t-8 -14t-13 -8 l-838 -365q-59 -23 -78 -22q-20 0 -30 33.5t-10 66.5z" />
<glyph unicode="?" horiz-adv-x="997" d="M145 1034q0 98 62.5 183.5t156 137.5t197 81.5t191.5 27.5q143 -4 245.5 -75.5t102.5 -206.5q0 -240 -309 -367q-4 -2 -34 -14.5t-40 -18.5t-29.5 -20t-28 -30.5t-8.5 -37.5q0 -12 8.5 -32.5t8.5 -30.5q0 -45 -61.5 -68.5t-117.5 -23.5q-53 0 -87.5 28.5t-34.5 81.5 q0 80 58 166t115.5 166t57.5 143.5t-49 63.5q-33 0 -56.5 -19.5t-33 -38t-25.5 -55.5q-20 -51 -34.5 -79.5t-49.5 -54.5t-84 -26q-55 0 -88 32t-33 87zM242 197q4 100 75.5 163.5t168 63.5t162 -63.5t61.5 -163.5q-4 -104 -76 -172t-168 -68t-161.5 67.5t-61.5 172.5z" />
<glyph unicode="@" horiz-adv-x="1484" d="M88 702q29 322 262.5 542t554.5 220q119 0 234.5 -40t208 -113.5t143.5 -189t39 -253.5q-23 -258 -196 -406.5t-416 -148.5q-45 0 -64.5 19.5t-18.5 43t-2.5 43t-17.5 19.5q-12 0 -49 -32.5t-97.5 -66.5t-125.5 -34q-88 0 -135.5 65.5t-36.5 174.5q18 209 169.5 370.5 t297.5 161.5q53 0 104.5 -30.5t65.5 -30.5q8 0 71.5 30.5t114.5 30.5q57 0 57 -39q0 -31 -45 -227.5t-45 -237.5q0 -45 29 -45q8 0 27.5 8.5t48 32t55.5 59.5t49.5 98t28.5 138q6 63 -19.5 139t-81 148t-159 120t-234.5 48q-266 0 -456.5 -169t-212.5 -433 q-25 -274 146 -437t449 -163q92 0 181.5 33.5t142.5 74.5t95 75t50 34q25 0 52.5 -32t25.5 -52q0 -8 -29.5 -37t-86 -70t-126 -79.5t-161.5 -65.5t-182 -27q-322 0 -527 206t-178 525zM711 596q-7 -57 30 -57q41 0 116 121.5t83 207.5q4 49 -25 50q-43 0 -118.5 -106.5 t-85.5 -215.5z" />
<glyph unicode="A" horiz-adv-x="1587" d="M-43 119q0 45 17.5 64.5t42 22.5t61.5 26.5t65 70.5q29 49 141.5 230.5t165 271.5t119 235.5t90.5 257.5q23 98 78.5 132t159.5 34q133 0 205 -66.5t121 -201.5q43 -123 215 -868q12 -55 38.5 -81t50 -29t42 -23.5t18.5 -65.5q0 -145 -381 -145h-26h-25h-32.5h-42t-44 1 t-49 4t-45.5 9t-43 15.5t-32.5 20.5t-23.5 28.5t-7 39.5q0 39 20.5 61.5t45 29t45 23.5t20.5 50q0 23 -10.5 37t-18.5 18.5t-35 10.5t-33 8h-274q-72 -6 -95.5 -26.5t-23.5 -63.5q0 -20 18.5 -31.5t40 -15.5t40 -24.5t18.5 -57.5q0 -43 -19.5 -68.5t-108.5 -47t-253 -21.5 q-53 0 -85 3t-78 13t-69.5 41t-23.5 78zM639 610q0 -27 61 -35h134q41 2 54 14.5t13 39.5q0 66 -38 176t-62 110q-35 0 -98.5 -135t-63.5 -170z" />
<glyph unicode="B" horiz-adv-x="1439" d="M29 127q0 49 31.5 70.5t69.5 34t46 38.5q51 172 86 426t35 439q0 39 -21.5 59t-47 26.5t-47 27t-21.5 57.5q0 75 64 107q56 28 127 28h18q104 -4 259.5 -4t362.5 4h17q178 0 284 -82q111 -86 111 -250q0 -70 -31 -132.5t-68.5 -96t-68.5 -61t-31 -36.5q0 -16 35 -37.5 t77 -46t76.5 -94t34.5 -172.5q0 -66 -23.5 -133.5t-74.5 -138t-158.5 -115.5t-252.5 -45h-662q-129 0 -178 33t-49 94zM678 254q0 -18 11 -27.5t19.5 -9.5h34.5q162 0 162 264q0 84 -30.5 121t-112.5 37q-18 0 -28.5 -2t-17.5 -3t-10.5 -9.5t-4.5 -13.5t-1 -23.5t-2 -30.5z M727 874.5q6 -24.5 45 -24.5q150 0 150 260q0 66 -24 96.5t-85 30.5q-16 0 -25.5 -2t-16.5 -3t-10 -9.5t-4 -11.5t-2 -20.5t-3 -27.5l-23 -229q-8 -35 -2 -59.5z" />
<glyph unicode="C" horiz-adv-x="1464" d="M90 528q0 231 109.5 444.5t310.5 351.5t440 140q59 0 115.5 -11t90.5 -23.5t40 -12.5q12 0 43 10.5t45 10.5q84 0 149.5 -108.5t65.5 -213.5q0 -92 -49 -154.5t-139 -62.5q-63 0 -108.5 42t-67 92t-65.5 92t-105 42q-94 0 -166 -108.5t-100.5 -228t-28.5 -207.5 q0 -123 53 -215.5t166 -92.5q117 0 244 127q4 4 34.5 37t48 49.5t47 34t56.5 17.5q59 0 90 -38t31 -100q0 -94 -61.5 -203.5t-149.5 -115.5q-43 -4 -84 -25q-129 -68 -230.5 -97.5t-232.5 -29.5q-262 0 -427 149.5t-165 407.5z" />
<glyph unicode="D" horiz-adv-x="1632" d="M49 113q0 47 20.5 70.5t47 27.5t55.5 22.5t41 57.5q37 119 77 403.5t40 407.5q0 55 -21.5 82.5t-47 32t-47 22.5t-21.5 59q0 47 19 78t57 42.5t71 14.5t80 3h24q104 0 580 10h24q613 0 613 -619q0 -57 -6 -117.5t-27.5 -144.5t-55.5 -158.5t-96.5 -151.5t-144.5 -131 t-205.5 -89t-275.5 -35h-463q-31 0 -88 -4q-61 -4 -90 -4q-76 0 -118 25.5t-42 95.5zM762 367q2 -84 20 -103q16 -16 52 -16q72 0 127 42t86.5 106.5t51 151.5t27 165t7.5 161q0 70 -7.5 122.5t-27 104.5t-61.5 80.5t-105 28.5q-35 0 -58.5 -11t-34 -35.5t-14.5 -43 t-6 -53.5t-4 -47z" />
<glyph unicode="E" horiz-adv-x="1427" d="M29 102q0 41 20.5 64.5t48 31t58 33t45.5 68.5q35 106 76.5 389t41.5 399q0 53 -19 84t-44 40.5t-44 31t-19 57.5q0 142 186 142h20q102 -4 156 -4q53 -2 160 -2h321q88 0 149.5 12t69.5 12q59 0 115.5 -86t56.5 -219q0 -63 -31.5 -110.5t-90.5 -47.5q-45 0 -72 20.5 t-41 50.5t-32.5 60.5t-60.5 51t-110 20.5q-41 0 -67.5 -3t-48 -5t-34 -15.5t-20.5 -20.5t-13 -34.5t-7 -43t-6.5 -60.5t-6.5 -72q-7 -39 -7 -61q0 -11 2 -17q5 -18 50 -18q41 0 61.5 29.5t26 64.5t27 64.5t64.5 29.5q137 0 136 -256q0 -47 -8 -105.5t-27 -121.5t-56 -105 t-88.5 -42t-70.5 32q-18 31 -18 67v9q0 36 -14 66q-14 32 -57 32q-25 0 -40 -18t-20.5 -54t-6.5 -62v-20q0 -21 1 -50q2 -43 2 -50q0 -96 17.5 -110t120.5 -14q88 0 148.5 27.5t88 66.5t49 76.5t51 65.5t74.5 28q123 0 123 -164q0 -133 -76.5 -241.5t-140.5 -108.5 q-2 0 -47 8q-74 6 -125 6h-547q-45 0 -139 -9t-139 -9q-172 0 -172 120z" />
<glyph unicode="F" horiz-adv-x="1339" d="M41 129q0 39 18.5 58.5t42 24.5t50 22.5t38.5 50.5q41 98 84 385.5t43 421.5q0 59 -21.5 88.5t-47 33t-47 26t-21.5 69.5q0 135 211 135q94 0 190 -4t121 -4h310q102 0 172 12q14 2 27.5 5t20.5 5t11 2q84 0 139.5 -107.5t55.5 -197.5q0 -74 -34 -122t-106 -48 q-51 0 -81.5 34t-43 74t-53.5 73.5t-112 33.5q-129 0 -161 -18.5t-40 -81.5q-33 -170 -33 -236q0 -18 10.5 -21t32.5 -3q45 0 67.5 28.5t28 64.5t31 64.5t76.5 28.5q49 0 78.5 -40t38.5 -85t10 -94q0 -57 -6 -115.5t-22.5 -133.5t-56.5 -122t-97 -47q-51 0 -72 34 q-19 30 -19 66v8q0 6 1 12q1 33 -11 61q-14 34 -51 34q-27 0 -39 -9t-25.5 -81t-13.5 -217q0 -43 22.5 -65.5t48 -26.5t48.5 -21.5t23 -52.5q0 -147 -383 -147h-15h-14q-244 0 -334 29.5t-90 115.5z" />
<glyph unicode="G" horiz-adv-x="1576" d="M66 557q0 233 113.5 441t314 337t434.5 129q72 0 151.5 -26.5t89.5 -26.5q12 0 44 9.5t49 9.5q63 0 124 -70q96 -102 97 -254q0 -92 -54.5 -154.5t-144.5 -62.5q-61 0 -103 43t-61.5 96t-60.5 96t-103 43q-84 0 -149.5 -63.5t-100 -159.5t-52 -188t-17.5 -168 q0 -117 48 -213t155 -96q59 0 95 37.5t36 97.5q0 43 -10.5 55t-53.5 23q-80 20 -80 94q0 159 430 159h5q352 0 352 -161q0 -45 -24.5 -65.5t-71.5 -31.5q-14 -4 -24.5 -9t-17 -9t-11.5 -15.5t-8 -16.5t-8 -21.5t-7 -24.5q-51 -143 -171 -240.5t-261.5 -138.5t-296.5 -41 q-291 0 -469 150.5t-178 435.5z" />
<glyph unicode="H" horiz-adv-x="1636" d="M41 115q0 31 18.5 52t40 31.5t44 27t28.5 36.5q117 395 117 864q0 39 -18.5 60.5t-40 27t-40 26t-18.5 56.5q0 53 39 82q96 74 407 74q174 0 237 -29.5t63 -91.5q0 -39 -19.5 -64.5t-43.5 -35.5t-47.5 -36t-29.5 -65q-26 -168 -26 -217q0 -26 2 -33.5t43 -18.5t129 -11 q123 0 141 49q25 68 25 246q0 57 -45.5 88t-45.5 80q0 80 85 109.5t333 29.5q190 0 254 -28.5t64 -88.5q0 -45 -20.5 -66.5t-47.5 -26.5t-52.5 -31.5t-31.5 -80.5q-4 -37 -26.5 -190.5t-31.5 -227t-21.5 -194.5t-14.5 -213v-10q-1 -43 15 -63q18 -22 39.5 -24.5t39 -22 t17.5 -64.5q0 -66 -76 -101.5t-273 -35.5q-236 0 -317.5 23.5t-81.5 107.5q0 37 17.5 55t38 23.5t42 22.5t27.5 48q45 229 45 285q0 65 -129 65h-4q-66 0 -100.5 -3t-52 -20.5t-20.5 -29.5t-11 -53l-21 -248q0 -41 45 -65.5t45 -71.5q0 -66 -70.5 -102.5t-279.5 -36.5 q-211 0 -298 24.5t-87 106.5z" />
<glyph unicode="I" horiz-adv-x="944" d="M27 135q0 45 28.5 65.5t64.5 25.5t70.5 44t42.5 113l84 676q0 8 5.5 43t5.5 59q0 33 -22.5 49.5t-49.5 20.5t-49.5 25.5t-22.5 62.5q0 51 43 78q88 55 357 55q258 0 352 -27t94 -108q0 -43 -25.5 -63.5t-56 -22.5t-60.5 -20.5t-36 -59.5q-2 -8 -25 -119l-79 -565 q-14 -104 -15 -135q0 -55 22.5 -84t50.5 -33t50.5 -24.5t22.5 -61.5t-30 -70.5t-67 -44t-98 -21.5t-94 -8t-84 -1h-12q-264 0 -365.5 30.5t-101.5 120.5z" />
<glyph unicode="J" horiz-adv-x="1261" d="M-4 299q0 115 81 190.5t202 75.5q80 0 139 -51t59 -131q0 -37 -16.5 -80t-16.5 -49q0 -23 17.5 -35t40.5 -12h3q45 0 80 53q36 55 57.5 151.5t35.5 197t20.5 216t8.5 183t2 121t-26 67.5t-57.5 6t-57 8.5t-25.5 71.5q0 59 37.5 94t146.5 55.5t303 20.5q102 0 175 -11 t107 -24.5t52 -36t20 -35t2 -30.5v-6q0 -47 -23.5 -64.5t-52 -17.5t-56 -26t-33.5 -85l-74 -649q-14 -135 -91 -237.5t-184.5 -156t-213 -78t-205.5 -24.5q-109 0 -208.5 31t-174 108.5t-74.5 188.5z" />
<glyph unicode="K" horiz-adv-x="1585" d="M29 121q0 35 16 53.5t37.5 23.5t46.5 29.5t37 69.5q43 150 81 412t38 419q0 35 -17.5 55.5t-40 28t-40 29t-17.5 57.5q0 84 112.5 119t256.5 35q104 0 176.5 -10t105.5 -22.5t50.5 -34t18.5 -29.5t1 -27q0 -41 -16.5 -61.5t-38 -25.5t-46 -22.5t-34.5 -50.5 q-31 -113 -31 -202q0 -61 20 -62q31 0 173.5 136.5t142.5 172.5q0 8 -19.5 42t-19.5 65q0 35 17.5 59.5t101.5 48t235 23.5q158 0 212 -38t54 -99q0 -59 -30.5 -75.5t-91 -24.5t-99.5 -41l-174 -142q-139 -117 -139 -147q0 -10 31 -80l288 -531q27 -41 88.5 -82.5t61.5 -85 t-15.5 -65t-92 -39.5t-226.5 -18q-55 0 -90 2t-66.5 16t-46 22.5t-37 43t-32.5 56t-39 83.5l-139 268q-53 98 -78 98q-14 0 -24.5 -11t-14.5 -30.5t-6 -36t-2 -38v-25.5q0 -135 2 -149q6 -41 53 -75t47 -71t-19.5 -65.5t-61.5 -44t-75.5 -25.5t-92 -13t-81 -4t-69.5 -1 q-98 0 -167 10t-102.5 22.5t-51 35t-19.5 34.5t-2 35z" />
<glyph unicode="L" horiz-adv-x="1345" d="M29 115q0 41 19.5 64.5t45 31.5t56 32.5t47.5 65.5q33 82 74.5 394.5t41.5 441.5q0 29 -23.5 46t-50 25.5t-50 32t-23.5 62.5q0 86 116.5 113.5t422.5 27.5q180 0 239.5 -31t59.5 -94q0 -49 -19.5 -69.5t-48.5 -24.5t-59.5 -15.5t-55 -60.5t-33.5 -143l-49 -600 q-5 -40 -5 -69q0 -34 7 -52q4 -10 13.5 -18.5t24 -13.5t25.5 -8t29.5 -4t28.5 -1h28.5h20.5q72 0 122 25.5t77 62.5t47.5 73.5t49 62.5t69.5 26q123 0 123 -142q0 -109 -59.5 -244t-151.5 -135q-37 0 -74 13q-51 10 -84 10h-672h-11t-24.5 -1t-29.5 -1q-66 -4 -119 -4 q-145 0 -145 121z" />
<glyph unicode="M" horiz-adv-x="1888" d="M0 106q0 47 19.5 70t44 27t53 23.5t43.5 60.5q195 516 198 800q0 53 -25.5 80t-58 32t-59.5 25.5t-27 63.5q0 16 5.5 32.5t30 42.5t67.5 44t128 31.5t202 13.5q121 0 165.5 -34t92.5 -146q18 -45 52 -156.5t61.5 -181.5t51.5 -70q18 0 50 37t68 97.5t67 113.5t59.5 108.5 t30.5 59.5q61 111 131 141.5t207 30.5q305 0 305 -137q0 -53 -24.5 -74.5t-55.5 -25t-61.5 -41t-40.5 -117.5q-4 -47 -19.5 -220t-21.5 -285t-6 -220q0 -57 28.5 -89t57 -52.5t28.5 -53.5q0 -153 -446 -153h-6q-307 0 -308 135q0 57 65 83.5t73 49.5q23 59 44 192.5 t21 206.5q0 41 -20.5 41t-98.5 -123l-159 -254q-95 -153 -159 -153h-1q-12 0 -23.5 4t-19.5 7t-16.5 13.5t-12.5 16.5t-10 20.5t-8 19.5t-8 22.5t-6 19.5l-82 247q-43 150 -68 150q-8 0 -14 -6t-10.5 -17.5t-6.5 -20.5t-5 -20.5t-3 -13.5q-59 -297 -59 -336q0 -47 50 -80.5 t50 -72.5q0 -31 -10 -50.5t-42 -40t-104.5 -30.5t-187.5 -10q-256 0 -256 122z" />
<glyph unicode="N" horiz-adv-x="1665" d="M0 115q0 43 30.5 62.5t69.5 34.5t52 46q43 117 72.5 251t39.5 209t24.5 222t16.5 172q1 10 1 19q0 37 -20 55q-24 24 -56.5 25t-60.5 21.5t-28 67.5q0 41 20.5 71t51.5 45.5t88 23.5t107.5 10t134.5 2q135 0 189 -37t155 -196l231 -347q94 -141 117 -141q68 0 68 359 q1 11 1 22q0 64 -22 92q-22 29 -50 29h-8q-32 -4 -59.5 13.5t-27.5 72.5q0 23 1 33t18.5 32.5t51 35t105 22.5t174.5 10q158 0 233.5 -25t75.5 -108q0 -43 -28.5 -62.5t-62.5 -23.5t-65.5 -26.5t-35.5 -67.5q0 -2 -16.5 -79t-20.5 -114l-84 -581q-23 -158 -57.5 -243 t-75.5 -111.5t-107 -26.5q-20 0 -39.5 4t-38 13t-33 17.5t-32 25.5t-26.5 26.5t-25.5 33t-22.5 31.5t-23.5 34t-21.5 32l-299 450q-78 117 -109 117q-12 0 -22 -12.5t-15.5 -34t-8.5 -37.5t-7 -41l-2 -27q-8 -45 -19.5 -168.5t-11.5 -146.5q0 -47 22.5 -75.5t49.5 -39 t49.5 -31t22.5 -51.5q0 -120 -269 -120h-4q-358 0 -358 131z" />
<glyph unicode="O" horiz-adv-x="1540" d="M88 532q0 252 120 466t327.5 340t453.5 126q268 0 437 -148.5t169 -412.5q0 -252 -119.5 -466t-327.5 -340t-454 -126q-268 0 -437 148.5t-169 412.5zM639 496q0 -43 3 -78t14 -84q12 -50 42 -76q26 -23 61 -23q5 0 11 1q76 0 134.5 85t86 209.5t40.5 230t13 179.5 q0 43 -3 78t-14 84q-11 50 -41 76q-26 23 -62 23q-5 0 -11 -1q-76 0 -134 -85t-85.5 -210t-41 -230.5t-13.5 -178.5z" />
<glyph unicode="P" horiz-adv-x="1366" d="M29 121q0 41 17 59.5t41 20.5t50.5 21.5t38.5 64.5q41 137 85 438t44 440q0 33 -22.5 48.5t-50 16.5t-50 21.5t-22.5 61.5q0 133 219 133q53 0 168 -4q88 -6 147 -6q80 0 162 6q106 4 160 4q450 0 450 -375q0 -108 -36.5 -202.5t-111.5 -174.5t-206 -127t-301 -47 q-16 0 -48 1t-48 1l-10 -155q-4 -29 -4 -53q0 -29 6 -48q10 -35 30.5 -45t43 -16t40 -23.5t17.5 -56.5q0 -78 -101.5 -109.5t-345.5 -31.5q-104 0 -177 10t-107.5 22.5t-54 35t-21.5 34.5t-2 35zM737 772q0 -23 7.5 -29t31.5 -6q55 0 96 41t59.5 105.5t26 121t7.5 109.5 q0 129 -119 129q-33 0 -44 -29.5t-24 -119.5q-2 -21 -4 -33l-22 -168q-14 -109 -15 -121z" />
<glyph unicode="Q" horiz-adv-x="1581" d="M98 532q0 252 120 466t328 340t453 126q268 0 437.5 -148.5t169.5 -412.5q0 -279 -142.5 -505t-345.5 -320q20 -43 94 -65.5t115 -22.5q49 0 100.5 24.5t75.5 24.5q35 0 59.5 -36t24.5 -71q0 -98 -74.5 -169.5t-170 -101.5t-189.5 -30q-102 0 -201.5 36t-150.5 69 t-166 117q-8 4 -12.5 7t-10.5 8t-12 9q-141 104 -215 105q-39 0 -96.5 -24t-85.5 -24q-47 0 -72 35t-25 84q0 80 97 135q-106 137 -106 318q0 13 1 26zM649 496q0 -43 3 -78t14.5 -84t41.5 -76q25 -23 61 -23q5 0 11 1q76 0 134.5 85t86 209.5t41 230t13.5 179.5q0 43 -3 78 t-14.5 84t-41.5 76q-25 23 -61 23q-5 0 -11 -1q-76 0 -134.5 -85t-86 -210t-41 -230.5t-13.5 -178.5z" />
<glyph unicode="R" horiz-adv-x="1587" d="M90 205q47 16 59.5 30.5t36.5 71.5q43 102 85 422q29 224 29 350q0 54 -5 90q-2 16 -10.5 25.5t-15.5 11.5t-27 8q-33 8 -46.5 14.5t-24.5 23t-11 46.5q0 129 209 140h673h19q177 0 291 -71q120 -75 133 -245q1 -14 1 -28q0 -74 -27 -132q-32 -70 -72.5 -101.5t-76.5 -58 t-36 -40.5q0 -10 4 -18.5t7 -12.5t15.5 -12t14.5 -10q61 -43 76 -70q8 -14 14 -31q20 -59 28.5 -184t20.5 -168q12 -39 53 -53q2 -2 14.5 -6t17.5 -6.5t14.5 -7.5t13.5 -9l10 -10t8 -14.5t2 -16.5q0 -55 -57 -91t-117.5 -47t-116.5 -11q-123 0 -198.5 35.5t-107.5 102 t-43 132t-21.5 157t-26.5 144.5q-23 66 -111 66q-39 0 -49 -9.5t-14 -48.5l-18 -256q0 -35 1 -47t12 -28.5t36 -28.5q37 -16 52 -31.5t15 -48.5q0 -139 -407 -139h-17h-10q-360 0 -360 142q0 60 61 79zM760 864q0 -16 12 -24.5t39 -8.5q57 0 91 50.5t43 103.5t9 113 q0 135 -108 135q-16 0 -27.5 -5t-17.5 -18.5t-8 -21.5t-4.5 -30t-2.5 -28l-24 -227q-2 -23 -2 -39z" />
<glyph unicode="S" horiz-adv-x="1316" d="M43 406q0 82 41 136t119 54q37 0 64.5 -13.5t48 -48t27.5 -50t26 -64.5q78 -195 209 -195q57 0 97 31t40 86q0 49 -50.5 97t-122 97.5t-143 106.5t-122 147.5t-50.5 198.5q0 219 166 347t391 128q59 0 131 -17t76 -17q10 0 49 17t72 17q84 0 152.5 -102t68.5 -191 q0 -70 -45 -122t-114 -52q-63 0 -116.5 53.5t-105 106.5t-108.5 53q-41 0 -68.5 -22.5t-27.5 -63.5q0 -82 126 -147q72 -39 92.5 -50.5t80 -48t81 -57t61.5 -60.5t54 -77t28.5 -87t14.5 -108q0 -104 -41 -192t-108.5 -147.5t-156.5 -100.5t-183.5 -60.5t-190.5 -19.5 q-106 0 -202.5 25.5t-179.5 76t-132 137.5t-49 198z" />
<glyph unicode="T" horiz-adv-x="1384" d="M100 1087q0 111 83 242t188 131q18 0 59 -12q45 -12 74 -12h583q92 0 145.5 12t67.5 12q84 0 141.5 -114.5t57.5 -206.5q0 -88 -43 -146.5t-127 -58.5q-53 0 -87 40t-47 87t-34.5 87t-50.5 40q-41 0 -54.5 -42t-25.5 -151q-2 -27 -4 -41q-2 -16 -18.5 -159.5t-26.5 -260 t-10 -194.5q0 -59 24.5 -89t53 -35t53 -24.5t24.5 -60.5q0 -147 -499 -147q-104 0 -180 11t-112 24.5t-56.5 36t-23.5 35.5t-3 32q0 41 23.5 62.5t53 26.5t61.5 21.5t44 49.5q31 84 76 435t45 402q0 68 -49 68q-33 0 -58.5 -40t-41.5 -87t-57.5 -87t-102.5 -40 q-70 0 -108 43t-38 110z" />
<glyph unicode="U" horiz-adv-x="1628" d="M154 1284q0 41 12 62q74 106 463 106q115 0 187.5 -12.5t101 -38t36 -44t7.5 -46.5q0 -39 -16.5 -59.5t-41 -30t-50.5 -22.5t-46.5 -53t-26.5 -106q-68 -532 -67 -544q-1 -19 -1 -36q0 -197 191 -198q201 0 268 187q45 123 70 316t25 353q0 53 -26 78t-55.5 29t-55 26.5 t-25.5 71.5q0 66 67.5 97.5t255.5 31.5q98 0 166 -11t99.5 -23.5t47 -35t16.5 -29.5t1 -26q0 -49 -24.5 -72.5t-55 -27.5t-60.5 -31t-38 -82l-63 -420q-14 -96 -25.5 -157.5t-36 -145.5t-55.5 -137t-82 -112.5t-117.5 -92.5t-162 -55.5t-212.5 -22.5q-129 0 -236.5 22.5 t-195.5 71t-137 135.5t-49 206q0 121 41 363.5t41 346.5q0 47 -21.5 67.5t-47 22.5t-46 19.5t-20.5 58.5z" />
<glyph unicode="V" horiz-adv-x="1521" d="M141 1280q0 27 1 39t23.5 43t65.5 46t137.5 29.5t229.5 14.5q109 0 176.5 -10t97 -33t38 -44.5t8.5 -55.5q0 -37 -22 -57.5t-46.5 -26.5t-43 -24.5t-11.5 -51.5q29 -168 72.5 -343t72.5 -175q35 0 133 239.5t98 300.5q0 35 -46 74t-46 84q0 123 312 123q272 0 272 -115 q0 -61 -32 -82.5t-77 -35t-63 -52.5l-438 -893q-92 -176 -149.5 -233t-145.5 -57q-106 0 -160 92q-35 63 -111 336q-6 23 -10 41l-178 649q-12 41 -40 63.5t-52.5 28.5t-45 26.5t-20.5 59.5z" />
<glyph unicode="W" horiz-adv-x="2312" d="M166 1290q0 94 124 128t359 34q49 0 82 -3t78 -14.5t68.5 -41t23.5 -74.5q0 -49 -52 -87t-52 -102q0 -66 46 -259t77 -193q43 0 124.5 161.5t81.5 233.5q0 51 -21.5 85t-47 47.5t-47 38t-21.5 56.5q0 45 30 76t128 53.5t268 22.5q305 0 305 -121q0 -45 -19.5 -69.5 t-44 -29.5t-44 -26.5t-19.5 -60.5q0 -100 55.5 -291.5t94.5 -191.5q33 0 94 133q2 2 27.5 58t39 88t34 84t30.5 91t10 66q0 35 -43 66.5t-43 80.5q0 66 79 94.5t249 28.5q258 0 258 -119q0 -41 -23.5 -64.5t-53 -30.5t-66 -28.5t-54.5 -58.5l-487 -952q-111 -215 -240 -215 q-43 0 -75.5 22.5t-54 64.5t-33 73.5t-23.5 78.5q-111 410 -147 410q-31 0 -126.5 -171t-136.5 -261q-94 -217 -231 -217q-25 0 -46.5 8t-36.5 19.5t-28.5 33t-21.5 36.5t-17.5 45t-13.5 44t-11 46t-9 40l-228 879q-8 29 -32.5 45t-50 21t-46 26.5t-20.5 62.5z" />
<glyph unicode="X" horiz-adv-x="1466" d="M-2 98q0 43 22.5 64.5t56.5 32t92 48.5t114 101l225 260q59 68 59 93q0 32 -67 143l-164 299q-20 37 -54 57.5t-61.5 26.5t-48 24.5t-20.5 55.5q0 35 18 60.5t58 41.5t82 26.5t109.5 14.5t118 5t128.5 1h47t50 -3t57.5 -9t44 -18.5t35.5 -33t11 -47.5q0 -39 -23.5 -64.5 t-47 -41.5t-23.5 -33q0 -23 30 -86t48 -63q25 0 75 71.5t50 106.5q0 8 -10.5 44t-10.5 54q0 39 15.5 61.5t84 42t195.5 19.5q246 0 246 -115q0 -51 -29.5 -73.5t-70.5 -24.5t-102.5 -32.5t-108.5 -92.5l-154 -213q-63 -74 -63 -102q0 -16 102 -207l172 -293q20 -37 52 -61.5 t55.5 -32.5t42 -26.5t18.5 -49.5q0 -20 -1 -30.5t-22.5 -36t-62.5 -40t-131 -26.5t-217 -12q-190 0 -256 29.5t-66 99.5q0 29 15.5 47t35 24t35 19.5t15.5 34.5q0 31 -43 123t-68 92q-27 0 -94.5 -100.5t-67.5 -135.5q0 -8 29 -43t29 -74q0 -116 -286 -116h-5 q-295 0 -295 114z" />
<glyph unicode="Y" horiz-adv-x="1441" d="M115 1305q0 84 105.5 115.5t395.5 31.5q160 0 218.5 -27.5t58.5 -91.5q0 -33 -14.5 -54.5t-32 -30.5t-31.5 -23.5t-14 -32.5q0 -31 42 -114t66 -85h1q20 0 89 95q70 96 70 116q0 16 -35 52t-35 77q0 119 301 119q139 0 205 -25.5t66 -89.5q0 -49 -37 -69.5t-89 -32.5 t-73 -39l-239 -295q-98 -121 -118 -176t-28 -219l-8 -240q-2 -35 20.5 -51t50 -18t51 -19.5t23.5 -52.5q0 -20 -1 -30.5t-21.5 -35t-58 -38t-120.5 -25.5t-200 -12q-100 0 -157.5 3t-125 13t-98.5 36.5t-31 67.5q0 43 25.5 66t57.5 28t60.5 22.5t32.5 49.5l58 414 q-1 51 -56 141l-206 336q-23 29 -54.5 46.5t-55 23.5t-41 24.5t-17.5 49.5z" />
<glyph unicode="Z" horiz-adv-x="1310" d="M68 85q0 55 79 171l451 686q102 154 102 195q0 27 -30.5 39t-59.5 12q-74 0 -122 -18.5t-65 -45t-32 -59.5t-24 -59.5t-35.5 -45t-71.5 -18.5q-123 0 -123 143q0 119 76 243t160 124q27 0 47 -8t82 -8h653h14q39 0 61.5 -1t55.5 -9.5t49.5 -30t16.5 -54.5 q0 -41 -23.5 -88t-94.5 -154.5t-114 -180.5l-268 -451q-80 -135 -80 -162q0 -25 40 -37t73 -12q76 0 122 23.5t63 57.5t29.5 67.5t35 57t63.5 23.5q61 0 92 -43t31 -106q0 -53 -23.5 -135t-72.5 -153t-105 -71q-8 -1 -74 13q-51 10 -98 11q-14 0 -28 -1h-359q-59 0 -178 -4 q-92 -6 -180 -6q-135 0 -135 95z" />
<glyph unicode="[" horiz-adv-x="1159" d="M317 -12l187 1284q37 252 102 313q49 47 303 47q31 -2 76 0t97.5 -2t96.5 -11t73.5 -30.5t29.5 -60.5q0 -80 -106 -88q-33 -2 -87.5 3t-58.5 5q-74 0 -98 -25q-20 -26 -43 -163l-184 -1186q-4 -49 9 -68.5t60 -25.5q41 0 98.5 4t75.5 4q86 0 86 -62q0 -31 -17.5 -53.5 t-52 -34.5t-66.5 -20t-81 -11.5t-76.5 -4.5t-70.5 0t-45 1q-201 0 -256 19q-72 27 -52 166z" />
<glyph unicode="\" horiz-adv-x="911" d="M63 1374q0 68 177 62q47 -2 65.5 -21.5t38.5 -66.5l115 -267l370 -788l179 -336q29 -61 26 -82q0 -39 -54 -54.5t-108 -13.5q-66 2 -100 58q-14 18 -35.5 73.5t-23.5 59.5l-447 948l-182 352q-20 41 -21 76z" />
<glyph unicode="]" horiz-adv-x="1159" d="M2 -92q0 80 107 88q33 2 87 -3t58 -5q74 0 98 24q20 27 43 164l185 1186q4 49 -9.5 68.5t-60.5 25.5q-41 0 -98.5 -4t-75.5 -4q-86 0 -86 61q0 31 17.5 53.5t52 35t66.5 20.5t81 11t76.5 4t70.5 0t45 -1q201 0 256 -18q72 -27 52 -166l-187 -1284q-37 -252 -102 -314 q-49 -47 -303 -47q-31 2 -76 0t-97 2.5t-96.5 11.5t-74 30.5t-29.5 60.5z" />
<glyph unicode="^" d="M150 381q0 18 22 78l365 837q2 8 8 13.5t14 8.5t14.5 6t18.5 4t18 1t18.5 1t16.5 1t16.5 -1t18.5 -1t18.5 -1t18.5 -4t14 -6t14.5 -8t8.5 -14l364 -837q23 -59 23 -78q0 -20 -34 -30.5t-67 -10.5h-63q-39 0 -59.5 15.5t-38.5 62.5l-234 536l-233 -536q-18 -47 -39 -62.5 t-58 -15.5h-65q-33 0 -66.5 10t-33.5 31z" />
<glyph unicode="_" horiz-adv-x="1024" d="M0 -154h1024v-102h-1024v102z" />
<glyph unicode="`" horiz-adv-x="813" d="M186 1452q0 27 20.5 46.5t53.5 28.5t61.5 13t55.5 4q63 0 150 -23.5t87 -66.5q0 -8 -12 -33q-8 -16 -8 -22q0 -21 61 -82l18.5 -18.5t20.5 -22.5t11.5 -20.5t7.5 -28.5q0 -33 -23.5 -52.5t-58.5 -19.5q-117 0 -281 95.5t-164 201.5z" />
<glyph unicode="a" horiz-adv-x="1290" d="M88 305q8 184 81 348t200 271.5t280 122.5q14 1 27 1q46 0 86 -16q52 -20 88.5 -44.5t58.5 -24.5q18 0 78 32q106 54 174 54q84 0 84 -69v-9q-4 -51 -28.5 -229.5t-32.5 -299.5q-3 -47 -3 -77q0 -41 5 -54q8 -23 37 -24h8q51 -6 51 -51q0 -90 -154.5 -171t-257.5 -81 q-61 0 -91.5 27.5t-32 59t-8.5 59.5t-27 28q-18 0 -66.5 -46t-127.5 -92.5t-171 -46.5q-132 -1 -198 97q-60 89 -61 212q0 12 1 23zM548 338q3 -16 14.5 -30.5t29.5 -12.5q74 5 158 187q79 171 79 262v10q0 27 -9 47t-32 18q-76 -6 -160 -172q-83 -162 -83 -267q0 -25 3 -42 z" />
<glyph unicode="b" horiz-adv-x="1226" d="M88 1247q0 41 25.5 71t52.5 42t74 29q70 27 181 51t173 24q60 0 84 -20q24 -19 23 -55q0 -27 -5 -99l-14 -131q0 -10 -10 -91t-10 -124q0 -37 24 -37q12 0 52 38t104.5 77t136.5 39q143 1 213 -107q62 -95 62 -223q0 -16 -1 -33q-19 -319 -213 -524q-191 -201 -513 -201 h-13q-152 2 -264.5 64.5t-112.5 200.5q0 61 47 344q51 328 52 503q0 35 -2.5 47.5t-15.5 22.5t-44 12q-35 2 -50 6.5t-25.5 21.5t-10.5 52zM580 260q10 -70 45 -70q80 0 126 182q42 167 42 241v12q-7 114 -58 114q-74 0 -120 -210q-37 -169 -37 -241q0 -17 2 -28z" />
<glyph unicode="c" horiz-adv-x="1126" d="M80 360q0 283 216 491t499 208q137 0 238.5 -69.5t105.5 -203.5v-10q0 -90 -70 -164q-74 -78 -170 -77q-55 0 -103 33.5t-48 88.5q0 31 17 77t17 61q0 16 -10 26t-27 10q-45 0 -79.5 -52t-52 -124.5t-24.5 -140.5q-5 -53 -5 -88v-18q0 -168 100 -168h2q83 0 205 71 q72 43 100 43q37 0 58.5 -36.5t21.5 -75.5q0 -82 -149 -162q-190 -106 -396 -107q-201 0 -323.5 95.5t-122.5 291.5z" />
<glyph unicode="d" horiz-adv-x="1288" d="M80 295v12q0 110 34 231q36 128 100.5 244.5t172 194.5t234.5 82h7q58 0 110 -30q56 -32 59 -32q25 0 39 58.5t14 95.5q0 45 -39 45q-8 0 -22.5 -2t-20.5 -2q-61 0 -61 63q0 41 28.5 74t58 46.5t78.5 29.5q63 20 169 40.5t165 20.5q94 0 94 -98l-8 -88l-49 -354l-39 -279 l-26 -285q0 -45 9 -57t50 -16q59 -6 59 -63q0 -56 -87 -114q-91 -60 -191 -93t-152 -35q-29 -2 -49 5t-31.5 15t-19.5 30.5t-11 36t-7 46.5q-6 53 -39 53q-12 0 -47 -30.5t-76 -67.5t-109.5 -68t-140.5 -31q-248 0 -256 322zM539 369q2 -31 12 -48.5t35 -15.5q82 2 154 176 q70 169 69 271v6q0 71 -52 71h-1q-82 0 -150 -177q-67 -172 -67 -277v-6z" />
<glyph unicode="e" horiz-adv-x="1157" d="M80 356q8 205 128 369t296 249t364 85q133 0 216 -58.5t83 -185.5q0 -178 -162.5 -309t-345.5 -131q-79 0 -79 -42t41 -67.5t84 -25.5q84 0 193.5 58t131.5 58q31 0 56.5 -27.5t25.5 -58.5q0 -113 -221 -215q-184 -82 -354 -82q-131 0 -233 37q-100 37 -164 126 q-60 84 -60 205v15zM575 600q0 -57 37 -57q44 0 100 89q52 83 52 151v10q-4 63 -47 63q-55 0 -98.5 -95t-43.5 -161z" />
<glyph unicode="f" horiz-adv-x="882" d="M102 -244q0 43 37 76q18 16 28.5 32.5t13.5 25t8.5 37t9.5 42.5q96 412 96 611q0 14 -5 24t-9.5 15.5t-17.5 8.5t-18 3h-23.5h-22.5q-51 0 -66.5 7t-15.5 32q0 12 4 61l6 68q0 6 2 17t3 15.5t3 11.5t6 9t12.5 4t18.5 2t29.5 -1t30 -1t22.5 2t17 8t5 17q0 16 -23.5 42.5 t-46 77t-22.5 121.5q0 160 134.5 252t299.5 92q109 0 196 -56t87 -161q0 -74 -45 -126t-119 -52q-53 0 -90 18.5t-86 61.5q-2 2 -15.5 13.5t-20.5 16.5t-19 11t-23 6q-25 0 -39 -17.5t-14 -39.5q0 -37 26.5 -63.5t65.5 -37.5q59 -16 94 -29.5t78 -45t60 -76.5q4 -10 5 -14.5 t5 -9.5t5 -6t7 -2t8 -1h12.5h16.5q53 0 61.5 -8.5t4.5 -61.5l-7 -92q-2 -53 -12 -61q-12 -6 -43 -6q-43 -2 -54 -15.5t-20 -62.5l-79 -631v-38v-41t-3.5 -32.5t-10.5 -35t-19.5 -27.5t-30.5 -29q-47 -33 -146.5 -58.5t-162.5 -25.5q-72 0 -130.5 30t-58.5 93z" />
<glyph unicode="g" horiz-adv-x="1245" d="M74 143q0 127 149 189q2 2 8.5 4t9.5 3t8 3t8 5l6 6t4 7.5t1 10.5q0 16 -24 37q-57 49 -83 99t-26 122q0 137 94.5 238.5t221.5 144.5t260 43q35 0 104.5 -8.5t104.5 -8.5q47 0 77.5 34t56 66.5t56.5 32.5q47 0 92 -49t45 -96q0 -35 -21.5 -71.5t-21.5 -43.5 q0 -4 15.5 -26.5t30.5 -62.5q11 -31 11 -67q0 -10 -1 -20q-10 -119 -65.5 -204t-141.5 -130t-178.5 -65.5t-196.5 -20.5q-59 0 -119.5 9.5t-66.5 9.5q-20 0 -34 -13.5t-14 -33.5q0 -12 4.5 -21.5t13.5 -16.5t18 -12.5t23.5 -8.5t26 -4t27.5 -2t24.5 -1h24h17.5l288 8 q111 0 184.5 -57t73.5 -166q0 -102 -60 -178t-155.5 -117t-191.5 -59.5t-191 -18.5q-68 0 -138.5 9.5t-153 31t-135 71.5t-52.5 120q0 43 29 75.5t29 41t-19.5 29t-38 54t-18.5 78.5zM326 -119q0 -57 71.5 -78.5t147.5 -21.5q66 0 136.5 19.5t70.5 66.5q0 34 -32 34 q-6 0 -13 -1q-60 -7 -109 -7q-25 0 -47 2q-66 5 -131.5 14t-77.5 9q-16 -2 -16 -37zM600 569v-11q0 -64 66 -64q23 0 42 11t32.5 36.5t22.5 46t16 61.5t10.5 56.5t7.5 58.5l4 43q1 10 1 18q0 62 -65 62q-115 0 -137 -318z" />
<glyph unicode="h" horiz-adv-x="1347" d="M109 104q0 31 17 118t19 100q6 47 39 221t57.5 332.5t24.5 244.5q0 37 -10 52.5t-45 17.5h-15.5t-15.5 1t-13 2t-14 3t-11.5 5t-10.5 7t-6 10.5t-5 15.5t-1 19q0 96 188 156q174 55 303 55q68 0 103 -19.5t35 -78.5q0 -31 -6.5 -79t-17.5 -108.5t-13 -80.5l-21 -127 q-8 -40 -8 -63q0 -31 14 -31q10 0 69.5 45t147.5 91t170 46q109 0 171.5 -54.5t62.5 -160.5q0 -82 -35 -262.5t-35 -231.5q0 -35 16.5 -48t37 -11t37 -10.5t14.5 -44.5q-4 -68 -90 -130q-86 -60 -186 -92q-88 -28 -148 -28h-15q-78 4 -113.5 40.5t-35.5 114.5q0 70 43 259.5 t43 238.5q0 86 -59 86q-143 0 -201 -473q-2 -14 -2 -19q-16 -127 -47 -157q-37 -39 -117 -66.5t-137 -27.5q-178 0 -178 122z" />
<glyph unicode="i" horiz-adv-x="757" d="M111 807q0 41 29.5 73.5t56 47t75.5 35.5q203 86 357 86q92 0 92 -95q0 -47 -35 -290q-27 -147 -51 -338q-2 -27 11 -33t44 -6q25 0 36 -2t21.5 -14.5t10.5 -34.5q0 -72 -88 -132.5t-187.5 -89t-165.5 -28.5q-63 0 -114 35.5t-51 97.5q0 36 12 114l53 349q18 106 19 112 q0 41 -46 41q-18 0 -26 1t-23.5 7.5t-22.5 21.5t-7 42zM205 1245q0 76 81 135.5t175 86t168 26.5q68 -1 120 -29q50 -27 50 -84q0 -74 -79 -134t-173 -88q-82 -25 -143 -25h-17q-182 10 -182 112z" />
<glyph unicode="j" horiz-adv-x="739" d="M66 -293q0 27 26 55q10 12 17.5 20.5t10.5 20t4 15.5t3 22.5t4 28.5l84 590q29 211 29 215q0 33 -11.5 43t-42.5 8q-37 0 -53 11.5t-16 45.5q0 41 25.5 77t54 53.5t73.5 39.5q201 94 355 95q53 0 76.5 -19.5t23.5 -75.5q0 -26 -14 -112l-101 -740q-4 -25 -10 -75 t-10 -72.5t-12.5 -64.5t-16.5 -62.5t-23.5 -52t-32.5 -48t-44 -38t-59.5 -32.5t-75.5 -21.5t-94 -14.5q-9 -1 -19 -1q-47 0 -95 18q-56 20 -56 71zM199 1235q0 76 80.5 135.5t175 86t168.5 26.5q68 0 120 -29q50 -28 50 -84q0 -74 -79 -134t-173 -89q-83 -25 -144 -25h-16 q-182 10 -182 113z" />
<glyph unicode="k" horiz-adv-x="1331" d="M115 1239q-1 61 59 107q62 48 153 72t168.5 35t131.5 11q51 0 73.5 -17t22.5 -67q0 -16 -12 -120l-37 -273q-4 -25 -4 -42q0 -40 22 -40q14 0 64 35q168 121 301 121q125 0 192.5 -64.5t67.5 -189.5q0 -170 -205 -277q-2 -2 -16.5 -8t-24.5 -12t-10 -14q0 -6 20 -41 l93 -148q23 -31 51 -45q43 -18 49 -33q6 -12 6 -32q0 -86 -142.5 -150.5t-242.5 -64.5q-31 0 -56.5 10t-41 21.5t-31.5 39t-21.5 40.5t-19.5 53t-18 51q-51 131 -74 131q-41 0 -47 -82q-6 -78 -17.5 -116t-44 -72.5t-94 -50t-168.5 -23.5q-13 -1 -25 -1q-118 0 -118 107 q0 51 8 92q8 45 37 199t45 253t32.5 234.5t16.5 229.5q0 54 -14 72q-11 14 -45 15q-8 0 -17 -1q-39 -4 -52 5q-15 10 -15 50zM610 494q1 -23 13 -23q59 0 142 78t83 153q0 57 -47 58q-68 0 -129.5 -97.5t-61.5 -168.5z" />
<glyph unicode="l" horiz-adv-x="770" d="M102 1237q0 37 14.5 64.5t44 46t53.5 28.5t65 23q198 65 335 65h4q59 0 88 -20.5t29 -77.5l-108 -991q0 -72 35 -72q10 0 30.5 3t30.5 3q45 0 45 -63q0 -78 -91 -141.5t-195.5 -91t-180.5 -27.5q-167 0 -167 167q0 15 1 31q16 193 63.5 536t55.5 413q1 6 1 11 q0 38 -40 38q-8 0 -24.5 -2t-24.5 -2q-63 0 -64 59z" />
<glyph unicode="m" horiz-adv-x="2002" d="M74 803q0 72 147 143l12 6q197 96 318 97q100 0 111 -117q0 -68 30 -68q16 0 79 46t154 92.5t175 46.5q76 0 135 -38t80 -108q0 -2 2 -11t4 -14.5t6 -9.5t10 -4q8 0 45 29t82 63.5t119 63.5t150 29q94 0 149 -56.5t55 -148.5q0 -61 -33.5 -259t-33.5 -241q0 -35 17.5 -48 t37 -11t36.5 -8.5t17 -40.5q0 -70 -84 -129.5t-176 -88t-157 -32.5h-10q-124 0 -142 145q0 90 34 263t34 253q0 66 -52 66q-33 0 -58.5 -15.5t-42.5 -45t-28.5 -60.5t-18.5 -75t-10 -71.5t-6.5 -68.5t-5.5 -51q-23 -209 -59 -250q-80 -90 -305 -90q-66 0 -94.5 25.5 t-28.5 90.5q0 80 39 262.5t39 272.5q0 39 -10.5 57.5t-44.5 18.5q-139 0 -168 -441q-12 -143 -29 -178q-35 -72 -180 -96q-55 -8 -140 -14q-10 -1 -20 -1q-115 0 -115 111q0 27 41 253t41 325q0 67 -48 67h-1q-31 0 -47 2t-33.5 17.5t-17.5 44.5z" />
<glyph unicode="n" horiz-adv-x="1368" d="M96 812q0 66 105 122q68 41 184.5 77t187.5 36q43 0 64.5 -28t26 -62.5t13.5 -62.5t30 -28q18 0 80.5 46t150.5 91.5t166 45.5q94 0 163.5 -53.5t69.5 -145.5q0 -76 -35.5 -266.5t-35.5 -249.5q0 -27 15 -40t33.5 -15.5t34 -15.5t15.5 -40q0 -70 -84 -127t-180 -83.5 t-162 -26.5q-147 0 -147 137q0 47 9 106.5t23.5 131t20.5 106.5l24 182q0 66 -57 66q-35 0 -64.5 -21.5t-49 -66.5t-32 -82t-22.5 -100.5t-12 -88t-8 -77.5q-16 -172 -76 -227.5t-254 -65.5q-10 -1 -19 -1q-131 0 -131 107q1 40 47 264q42 203 41 303v21q0 65 -55 65h-2h-20 q-58 0 -58 67z" />
<glyph unicode="o" horiz-adv-x="1251" d="M88 379q0 291 202 485.5t494 194.5q203 0 335 -106.5t132 -299.5q0 -291 -201.5 -485.5t-494.5 -194.5q-203 0 -335 106.5t-132 299.5zM555 285q0 -94 66 -95q14 0 26 4.5t21.5 13.5t16.5 16t14.5 23.5t11.5 25t9 27.5t6 25.5t5 27t4 22.5q49 250 49 369q0 98 -67 98 q-14 0 -26.5 -4t-22 -13.5t-17.5 -18.5t-15 -24.5t-11 -26t-9.5 -29.5t-8.5 -27.5t-7 -28t-4 -23.5q-41 -201 -41 -362z" />
<glyph unicode="p" horiz-adv-x="1318" d="M82 -213q0 31 11 47t42 41q23 18 33 36.5t13 32t9 50.5l54 577q0 88 -15 119q-10 23 -59 27q-43 2 -63.5 15t-20.5 59q0 20 10 39.5t20.5 31.5t35 26.5t36 19.5t42 18.5t34.5 15.5q242 106 295 107q84 0 88 -88q0 -53 39 -54q16 0 49 22.5t69 49.5t101.5 49.5t136.5 22.5 q96 0 162 -63.5t90.5 -146.5t24.5 -177q0 -154 -60.5 -309.5t-187.5 -268.5t-287 -113q-33 0 -71 15q-41 12 -54 12q-27 0 -33 -38q-2 -18 -2 -37q0 -20 3 -40q6 -39 14 -55q8 -18 57.5 -43t49.5 -59q0 -115 -224 -115q-57 0 -118.5 6t-141.5 21.5t-131 53.5t-51 93z M637 254q0 -63 49 -64q55 0 99 95.5t62.5 194t18.5 158.5q0 101 -65 101q-55 0 -95 -107.5t-54.5 -212t-14.5 -165.5z" />
<glyph unicode="q" horiz-adv-x="1290" d="M80 297q0 172 74.5 342t223 292t333.5 128h7q68 0 132 -37q68 -39 82 -39q27 0 119 48t141 48t66.5 -22.5t17.5 -75.5l-105 -1055q0 -47 10.5 -72.5t45.5 -46.5q4 -2 19.5 -11t21.5 -13t17 -13.5t15.5 -19.5t4.5 -22q0 -115 -277 -115l-39 2q-39 0 -87 1t-108.5 10 t-109.5 22.5t-83 41t-34 64.5q0 59 80 78q37 8 48.5 23.5t25.5 58.5q4 14 13 48t18 83q8 37 8 67q0 9 -1 18q-3 36 -24 36q-16 0 -63 -48t-128 -97.5t-182 -49.5q-137 0 -209.5 92.5t-72.5 233.5zM547 360q0 -84 53 -84q78 10 163 190.5t85 301.5q0 74 -57 74 q-80 0 -161 -175t-83 -307z" />
<glyph unicode="r" horiz-adv-x="1083" d="M94 823q0 39 30 71t61.5 47t84 35.5t68.5 29.5q102 53 188 53q43 0 64.5 -31t26 -66.5t14.5 -66.5t31 -31q18 0 36.5 31t36 67.5t61.5 67.5t109 31q98 0 160.5 -71.5t62.5 -172.5q0 -102 -51 -174t-149 -72q-53 0 -81 19.5t-56 68.5q-25 49 -41 50q-31 -1 -43 -105 l-31 -332q1 -17 1 -33q0 -124 -69 -182q-78 -65 -286 -73q-10 -1 -20 -1q-138 0 -138 109q0 55 42 261t44 309q2 43 -8.5 57t-51.5 14q-51 0 -73.5 18.5t-22.5 71.5z" />
<glyph unicode="s" horiz-adv-x="966" d="M59 182q0 51 30 98.5t79 47.5q29 0 49.5 -21.5t31.5 -47.5t34.5 -47.5t58.5 -21.5t61.5 18.5t26.5 49.5q0 35 -40 83t-88 93t-88 118t-40 150q0 115 81 200t189.5 121t221.5 36q109 0 210 -41t101 -131q0 -53 -29.5 -101.5t-79.5 -48.5q-41 0 -80.5 59.5t-78.5 59.5 q-27 0 -45.5 -16.5t-18.5 -42.5q0 -43 46 -96.5t100.5 -99.5t100.5 -122t46 -160q0 -119 -86 -200.5t-195.5 -113.5t-224.5 -32q-80 0 -156.5 14.5t-146.5 64.5t-70 130z" />
<glyph unicode="t" horiz-adv-x="866" d="M78 889q0 133 129 145q47 6 62.5 26.5t37.5 96.5q35 119 96 148q92 45 256 45q78 0 78 -76q-18 -184 -18 -191q0 -18 7 -28.5t21.5 -13.5t27.5 -3t37 2t36 2q51 0 51 -36q0 -20 -10 -88q0 -4 -2 -15.5t-2 -14.5t-2 -12.5t-4 -13.5l-5.5 -11t-7.5 -9t-9 -6.5t-13 -5.5 t-17 -1q-109 0 -129 -20.5t-43 -151.5l-26 -202q-7 -31 -7 -56q0 -29 9 -50q16 -40 55 -40q27 0 66 19.5t51 19.5q55 0 55 -73.5t-103.5 -144.5t-221 -108.5t-183.5 -37.5q-96 0 -150.5 47t-54.5 143q0 68 21 195l61 360q5 29 5 48t-6 27q-11 14 -72 15q-39 0 -57.5 15.5 t-18.5 54.5z" />
<glyph unicode="u" horiz-adv-x="1394" d="M102 793q0 88 177 170q178 84 329 84q104 0 105 -117q0 -37 -9.5 -99.5t-29 -166t-21.5 -115.5q0 -2 -4 -20.5t-7 -37t-6 -44t-1 -47t6 -40t15.5 -30t29.5 -11.5q76 0 135 132q35 78 50.5 197.5t32 207.5t54.5 121q39 35 124 53.5t155 18.5q119 0 119 -88q0 -16 -5 -55.5 t-5 -47.5l-70 -395q-12 -61 -12 -94q0 -61 63 -62q31 -2 41 -3t20.5 -13t10.5 -39q0 -72 -92.5 -137.5t-199 -97t-175.5 -31.5q-45 0 -67.5 28.5t-25.5 62.5t-14.5 62.5t-33.5 28.5q-14 0 -79 -47t-162 -93q-89 -42 -177 -42h-15q-176 6 -182 211v9q0 68 26 216 q28 158 34 199q6 24 6 45q0 14 -2 26q-6 32 -52 37q-27 2 -42 6t-29.5 18.5t-14.5 39.5z" />
<glyph unicode="v" d="M96 825q0 57 53.5 102.5t131 71t150.5 38t124 12.5q139 0 139 -121q0 -55 -9 -123t-24.5 -154t-21.5 -125q0 -4 -6 -43t-8 -55t-4.5 -53t4 -56.5t16.5 -43t31.5 -34t52.5 -10.5q80 0 139.5 70t84 155t24.5 162q0 76 -55.5 176.5t-55.5 135.5q0 61 54.5 89t123.5 28 q178 0 179 -228q0 -125 -26 -244.5t-80 -229t-132 -191.5t-190.5 -131.5t-245.5 -49.5q-154 0 -268.5 80t-114.5 228q0 76 30.5 243.5t30.5 188.5q0 53 -53 55q-4 0 -16.5 1t-14.5 2t-11 2t-12 3t-8.5 6t-6.5 10.5t-3 14.5t-2 18z" />
<glyph unicode="w" horiz-adv-x="1863" d="M113 834q0 39 22.5 66.5t47 39.5t67.5 29q72 29 179.5 54.5t172.5 25.5q61 0 85 -35t24 -101q0 -74 -35 -245.5t-41 -223.5q-3 -33 -3 -60q0 -122 60 -122q63 0 111.5 64.5t71 161t33 173t10.5 136.5q2 63 21 108t48 70.5t82 41t99 20.5t122 10q9 1 17 1q46 0 69 -20 q27 -22 27 -82q0 -94 -45 -281.5t-47 -254.5v-14q0 -164 94 -165q115 0 181.5 124t66.5 249q0 96 -49.5 197.5t-49.5 140.5q0 53 46.5 80t103.5 27q109 0 149.5 -65.5t44.5 -184.5q1 -22 1 -44q-1 -189 -63 -355q-70 -184 -221 -304.5t-358 -122.5h-11q-78 0 -144 26 q-72 28 -106.5 60.5t-60.5 60t-32 27.5q-8 0 -47 -27.5t-89 -59t-132 -59.5t-166 -28q-137 0 -217 83t-80 223q0 74 29.5 235.5t29.5 187.5q0 25 -7 36.5t-16 14.5t-38 5q-57 6 -57 76z" />
<glyph unicode="x" horiz-adv-x="1155" d="M88 225q0 49 22.5 97.5t67.5 48.5q29 0 55.5 -27t38.5 -27q18 0 79 60.5t61 81.5q0 27 -48.5 112.5t-74.5 85.5q-10 0 -39 -20.5t-51 -20.5q-37 0 -59.5 31t-22.5 70q0 111 158.5 221.5t267.5 110.5q39 0 67.5 -26t53.5 -89q10 -25 37.5 -71t31.5 -46q10 0 56.5 57.5 t105.5 115t98 57.5q70 0 117 -84t47 -158q0 -41 -27.5 -78t-66.5 -37q-25 0 -54.5 24.5t-45.5 24.5q-23 0 -74 -53t-51 -76q0 -25 51 -118t76 -93q8 0 37.5 16.5t52.5 16.5q33 0 58.5 -26.5t25.5 -61.5q0 -100 -149.5 -229t-252.5 -129q-53 0 -97 63.5t-73.5 133t-46.5 75.5 q-6 2 -43 -40t-80 -93t-96 -95t-90 -44q-45 0 -75 48t-39 97t-9 94z" />
<glyph unicode="y" horiz-adv-x="1275" d="M57 -96q0 92 58.5 148.5t150.5 56.5q76 0 125 -42t49 -116q0 -16 -4 -51t-4 -54q0 -41 33 -41q45 0 71 51q25 48 25 92v7q-4 123 -111.5 404.5t-162.5 281.5q-14 0 -54 -35t-65 -35q-39 0 -68 39q-26 34 -26 69v9q6 61 99 149.5t204.5 150t171.5 61.5q41 0 71.5 -14.5 t54 -49.5t35 -55.5t31.5 -69.5q18 -43 62.5 -177t81.5 -227.5t59 -99.5q3 -1 5 -1q32 0 53 89q22 95 22 152q0 76 -47 157t-47 128q0 70 52 112.5t124 42.5q109 0 146.5 -75.5t37.5 -196.5v-21q0 -161 -58 -347q-63 -199 -172.5 -377.5t-278.5 -297t-357 -118.5 q-147 0 -257 79.5t-110 221.5z" />
<glyph unicode="z" horiz-adv-x="1036" d="M94 76q0 18 6 34.5t13.5 24.5t20.5 21.5t18 19.5q6 6 128.5 144.5t188.5 219.5t80 117q6 16 -16.5 24.5t-49.5 10.5q-96 0 -128.5 -13t-65.5 -63q-24 -38 -62 -38h-2q-96 0 -96 145q0 80 52 208t120 128q16 0 41 -8q44 -15 150 -15h426h20q115 0 115 -67 q0 -33 -14.5 -62.5t-44 -68.5t-38.5 -52q-4 -6 -90 -98t-165.5 -188.5t-79.5 -124.5q0 -35 45 -35q25 0 67 6q57 8 74.5 17.5t32 36t21.5 38t24.5 21.5t42.5 10q94 0 94 -123q0 -96 -62.5 -227t-138.5 -131q-14 0 -56 5q-30 4 -57 4q-11 0 -22 -1h-475q-117 0 -117 80z" />
<glyph unicode="{" horiz-adv-x="1159" d="M293 711q0 25 24.5 52.5t71.5 27.5q51 0 73.5 23.5t31.5 74.5l73 469q43 289 336 289h191q72 0 71 -76q0 -23 -24.5 -49.5t-71.5 -26.5q-51 0 -72.5 -23.5t-29.5 -74.5l-66 -412q-18 -125 -68.5 -190.5t-168.5 -79.5v-6q88 -12 124.5 -54.5t36.5 -117.5q0 -37 -10 -99 l-61 -391q-4 -29 -4 -41q0 -57 77 -57q72 0 72 -76q0 -25 -24.5 -50.5t-71.5 -25.5h-191q-125 0 -188.5 53.5t-63.5 176.5l78 505q2 14 2 43q0 57 -75 58q-72 0 -72 78z" />
<glyph unicode="|" horiz-adv-x="856" d="M389 -512v2048h238v-2048h-238z" />
<glyph unicode="}" horiz-adv-x="1159" d="M133 -131q0 23 24.5 49.5t71.5 26.5q51 0 73 23.5t30 74.5l65 412q18 125 68.5 190.5t169.5 79.5v6q-88 12 -125 54t-37 118q0 37 10 98l62 392q4 29 4 41q0 57 -78 57q-72 0 -72 76q0 25 25 50t72 25h190q125 0 188.5 -53t63.5 -176l-78 -506q-2 -14 -2 -43 q0 -57 76 -57q72 0 72 -78q0 -25 -25 -52.5t-72 -27.5q-51 0 -73.5 -23.5t-30.5 -74.5l-74 -469q-43 -289 -336 -289h-190q-72 0 -72 76z" />
<glyph unicode="~" d="M150 469q0 98 68.5 171t162.5 73q92 0 257 -69t196 -69q16 0 20 7.5t4 27.5q0 53 30 78t73 25q86 0 133 -25.5t47 -107.5q0 -98 -68.5 -171t-163.5 -73q-90 0 -256 68.5t-196 68.5q-16 0 -20.5 -7t-4.5 -28q0 -53 -29.5 -77.5t-72.5 -24.5q-86 0 -133 25.5t-47 107.5z " />
<glyph unicode="&#xa1;" horiz-adv-x="686" d="M92 -213q2 98 38 215t74 195.5t99 193.5q47 90 111 90q59 0 94 -96q98 -254 98 -553q0 -133 -73.5 -199.5t-210.5 -66.5q-109 0 -170.5 57.5t-59.5 163.5zM227 831q4 100 76 164t168 64t161.5 -63.5t61.5 -164.5q-4 -104 -75.5 -171.5t-168 -67.5t-162 67.5t-61.5 171.5z " />
<glyph unicode="&#xa2;" d="M150 477q0 211 140 395.5t365 257.5q12 4 17.5 7.5t10.5 6.5t7 11t3 15.5t4 28t5 36.5q6 29 9.5 39t13.5 20.5t31 10.5h71q14 -2 34 -2h33t26.5 -3.5t19.5 -12.5t6 -23q0 -16 -7 -49t-7 -52q0 -16 31 -20q102 -23 161.5 -86.5t59.5 -163.5t-66.5 -173t-165.5 -73 q-59 0 -105 34t-46 91q0 29 17.5 73t17.5 56q0 37 -35 37q-61 0 -105 -104q-16 -39 -32.5 -113t-23.5 -158t19.5 -145.5t90.5 -61.5q68 0 166 56.5t126 56.5q39 0 59.5 -35t20.5 -74q0 -74 -120.5 -144.5t-210.5 -90.5q-12 -4 -16.5 -5t-10.5 -4t-7 -4t-4 -7.5t-3 -9.5 t-1.5 -14.5t-3.5 -19.5q-14 -78 -27 -87t-104 -9h-14q-39 0 -56.5 1t-32.5 10.5t-15 29.5q0 8 6 38t6 40q0 27 -57 27q-139 14 -220 119.5t-81 246.5z" />
<glyph unicode="&#xa3;" d="M16 201q-2 84 57.5 144.5t139.5 57.5q18 0 52 -6t50 -6q55 0 19 182q-2 8 -13.5 13.5t-29 6.5t-32.5 1t-31.5 -1t-18.5 -1q-49 0 -67.5 17.5t-18.5 72.5q0 63 22.5 78.5t79.5 15.5q6 0 21.5 -1t21.5 0t16.5 4t14.5 12.5t4 25.5q0 18 -5 57t-5 58q0 111 43 196.5 t112.5 136t152.5 76t171 25.5q147 0 276.5 -78t129.5 -233q0 -74 -45.5 -121t-108.5 -47q-49 0 -96 33.5t-37 85.5q8 35 10 55t0 52t-22.5 47.5t-59.5 15.5q-61 0 -96 -49.5t-37 -122.5q0 -115 23 -193q2 -10 6 -18.5t7 -11.5t11 -5t11.5 -2h15.5h16q66 4 90.5 -11t24.5 -77 q0 -53 -13.5 -73.5t-58.5 -22.5h-47q-57 0 -67 -10q-8 -6 -27 -80q-12 -47 -47 -109q-10 -16 -10 -26q0 -29 99 -51.5t144 -22.5q51 0 81 23.5t41 57.5t21.5 68.5t35 58t69.5 23.5q94 0 88 -104q-10 -158 -107.5 -288t-242.5 -130q-102 0 -250.5 54.5t-155.5 54.5 q-12 0 -41.5 -25t-78 -50.5t-105.5 -25.5q-80 0 -140.5 50.5t-62.5 142.5z" />
<glyph unicode="&#xa4;" d="M115 623q0 145 75 266q-63 63 -65 86q0 39 54 93t93 54q27 -2 86 -65q123 74 258 73q152 0 265 -73q66 66 86 65q41 0 94 -55t53 -92q-2 -23 -65 -86q78 -121 77 -264q0 -154 -77 -263q63 -63 65 -86q0 -39 -54 -93t-93 -54q-27 2 -86 66q-121 -76 -254 -76 q-152 0 -269 76q-66 -66 -86 -66q-41 0 -94 55.5t-53 91.5q2 23 65 86q-76 133 -75 261zM369 624.5q0 -102.5 72.5 -177t179 -74.5t179 74.5t72.5 177t-72.5 177.5t-179 75t-179 -75t-72.5 -177.5z" />
<glyph unicode="&#xa5;" d="M111 606q0 33 2 49.5t15 33t40 16.5h188q2 0 17.5 2t22.5 4t15.5 10t8.5 20q0 29 -84 168l-82 138q-18 31 -26.5 38t-34.5 19q-59 27 -72 49q-10 16 -10 41q0 123 397 123q244 0 244 -109q0 -41 -38 -70.5t-38 -47.5q0 -29 34.5 -104t57.5 -75q16 0 71.5 86t55.5 105 q0 16 -27.5 48t-27.5 64q0 109 262 109q150 0 188 -47q18 -20 19 -53q0 -29 -13.5 -47.5t-29 -25.5t-43.5 -15q-41 -8 -66 -33q-18 -18 -100 -129q-158 -205 -158 -236q0 -32 66 -32h180q43 0 57.5 -17.5t14.5 -66.5q0 -72 -16.5 -86.5t-90.5 -14.5h-141q-109 0 -129 -24 q-18 -23 -19 -148q0 -20 -2 -48t-1 -38t5 -24.5t14.5 -22.5t30.5 -14q25 -8 38.5 -14.5t24.5 -24t11 -41.5q0 -123 -330 -121h-16h-29h-41t-44.5 1t-51 4t-46.5 8t-45 14.5t-33.5 19.5t-24 26.5t-7.5 37.5q0 41 24 59t67 29q33 8 45 30q10 18 25.5 99.5t15.5 109.5 q0 51 -27 66.5t-76 15.5h-72q-92 0 -120 4q-20 2 -30.5 14.5t-12.5 26t-2 41.5z" />
<glyph unicode="&#xa6;" horiz-adv-x="856" d="M389 238q0 37 2 53t12.5 35.5t35 25.5t67.5 6q45 0 69.5 -6t36 -24.5t13.5 -35t2 -52.5v-496q0 -39 -4.5 -56.5t-32 -31.5t-84.5 -14q-80 0 -98.5 23.5t-18.5 84.5v488zM389 774v488q0 37 2 53t12.5 35.5t35 25.5t67.5 6q45 0 69.5 -6t36 -24.5t13.5 -35t2 -52.5v-496 q0 -39 -4.5 -56.5t-32 -31.5t-84.5 -14q-80 0 -98.5 23.5t-18.5 84.5z" />
<glyph unicode="&#xa7;" horiz-adv-x="1484" d="M94 72q-6 51 76 75.5t149 24.5q61 0 93 -37q57 -76 117.5 -110.5t150.5 -34.5q68 0 124 24.5t56 83.5q0 35 -29.5 61.5t-50 35t-67.5 22.5q-33 10 -112 31.5t-125 35t-111.5 44t-102.5 64.5t-64.5 89.5t-27.5 124.5q0 84 37 153.5t82 105.5t82 61.5t37 31.5q0 8 -24 28 t-52.5 44.5t-52 77.5t-23.5 123q0 92 44 164.5t111.5 116.5t156.5 72t171 38t164 10q55 0 134 -9t177.5 -29.5t166 -65.5t67.5 -107q0 -51 -76 -88t-133 -37q-51 0 -76 27q-61 66 -115.5 95.5t-134.5 29.5q-55 0 -107 -25.5t-52 -74.5q0 -39 33.5 -67t65.5 -39t79 -21 q6 -2 10 -2q14 -4 66.5 -16.5t74 -18.5t69.5 -21.5t71.5 -29t62.5 -34t57.5 -44t39 -53t27.5 -67.5t5 -81q-6 -90 -44 -159.5t-80 -100.5t-77.5 -55.5t-37.5 -34.5t23.5 -29.5t57 -43t58 -77t26.5 -125.5q0 -207 -208 -331q-152 -88 -396 -93q-98 -2 -200.5 10.5t-200.5 41 t-165 84t-77 131.5zM573 745q0 -25 8.5 -43t30 -30.5t34.5 -17.5t44 -15l154 -47q59 -27 93 29.5t34 93.5q0 33 -18.5 56.5t-40 32.5t-54.5 17q-190 55 -192 56q-33 0 -63 -48.5t-30 -83.5z" />
<glyph unicode="&#xa8;" horiz-adv-x="1413" d="M330 1288q0 96 131 154.5t241 58.5q53 0 96.5 -25.5t43.5 -74.5q0 -68 -101 -135q-117 -74 -256 -74q-59 0 -107 22.5t-48 73.5zM944 1288q0 96 131 154.5t244 58.5q51 0 94 -26.5t43 -73.5q0 -68 -100 -135q-117 -74 -254 -74q-59 0 -108.5 22.5t-49.5 73.5z" />
<glyph unicode="&#xa9;" horiz-adv-x="1638" d="M141 719q0 309 219.5 527t528.5 218t528 -218t219 -527t-219 -528.5t-528 -219.5t-528.5 219.5t-219.5 528.5zM283 719q0 -252 177 -429t429 -177t429 177t177 429q0 250 -177 427t-429 177t-429 -177t-177 -427zM465 713q0 170 134 288.5t306 118.5q66 0 136.5 -27.5 t72.5 -27.5q10 0 26.5 4t24.5 4q39 0 74 -54t35 -142q0 -49 -28.5 -83t-76.5 -34q-39 0 -66.5 30.5t-45 68.5t-61.5 68.5t-111 30.5q-63 0 -94 -47t-31 -112q0 -117 66.5 -205t179.5 -88q57 0 100 19.5t66.5 39t31.5 19.5q23 0 36 -20.5t13 -45.5q0 -47 -29.5 -95t-78.5 -58 q-18 -4 -94 -35t-156 -31q-176 0 -303 122t-127 292z" />
<glyph unicode="&#xaa;" horiz-adv-x="839" d="M139 1044q0 70 31 154t78 137q109 129 229 129q43 0 86 -23.5t53 -23.5q8 0 58.5 23.5t87.5 23.5q51 0 51 -49q0 -37 -18.5 -154.5t-18.5 -177.5v-6q0 -35 19 -39h6q35 0 35 -32q0 -53 -90.5 -99.5t-149.5 -46.5q-47 0 -63.5 24.5t-18.5 48t-10 23.5q-6 0 -34 -25.5 t-75 -51t-100 -25.5q-76 0 -116 55.5t-40 134.5zM416 1079q0 -8 2 -16t6 -14.5t12 -4.5q39 8 85 100.5t44 149.5q0 8 -1 15.5t-6 13.5t-13 4q-45 -14 -87 -98t-42 -150z" />
<glyph unicode="&#xab;" horiz-adv-x="1159" d="M82 588q0 100 203 263t305 163q31 0 56.5 -25.5t25.5 -54.5q0 -51 -123 -186.5t-123 -190.5q0 -47 68.5 -184t68.5 -185q0 -35 -28.5 -58.5t-65.5 -23.5q-80 0 -233.5 199t-153.5 283zM598 588q0 100 203 263t305 163q31 0 56.5 -25.5t25.5 -54.5q0 -51 -123 -186.5 t-123 -190.5q0 -47 68.5 -184t68.5 -185q0 -35 -28.5 -58.5t-65.5 -23.5q-80 0 -233.5 199t-153.5 283z" />
<glyph unicode="&#xac;" d="M150 725q0 45 5 69.5t23.5 35t32.5 12.5t53 2h19h725q133 0 133 -133v-373v-19q0 -37 -2 -52t-12.5 -33.5t-35 -23.5t-69.5 -5t-69.5 5t-35 23.5t-12.5 33t-2 52.5v19v164q0 90 -8 96q-10 8 -96 8h-516h-19q-37 0 -52 2t-33.5 12.5t-23.5 35t-5 69.5z" />
<glyph unicode="&#xad;" horiz-adv-x="604" d="M43 426q4 90 58.5 214t121.5 116q8 -2 29 -2t29 -2l200 -15q37 0 85 6.5t52 6.5q35 0 35 -50q0 -74 -51 -207t-106 -128q-2 0 -21.5 2t-28.5 4q-162 10 -177 11t-183 -3q-47 0 -43 47z" />
<glyph unicode="&#xae;" horiz-adv-x="1638" d="M141 719q0 309 219.5 527t528.5 218t528 -218t219 -527t-219 -528.5t-528 -219.5t-528.5 219.5t-219.5 528.5zM283 719q0 -252 177 -429t429 -177t429 177t177 429q0 250 -177 427t-429 177t-429 -177t-177 -427zM459 403q0 23 13 32t28.5 15.5t29 49.5t13.5 121v253 q0 55 -8.5 87t-21.5 40.5t-25.5 11.5t-20.5 12t-8 30q0 70 131 69q23 0 69 -4t68 -4q35 0 108.5 4t108.5 4q109 0 191 -51t82 -153q0 -68 -29 -106t-56.5 -53.5t-27.5 -25.5t23.5 -23.5t53 -28.5t54.5 -61.5t25 -113.5q2 -33 16 -49.5t29.5 -17.5t28 -10t12.5 -32 q0 -41 -54.5 -64.5t-124.5 -23.5q-86 0 -135 36t-65.5 88t-26.5 104.5t-32.5 88.5t-67.5 36q-20 0 -26.5 -12.5t-6.5 -61.5q0 -68 8 -109q4 -25 35 -43t31 -45q0 -72 -209 -71q-213 0 -213 81zM803 809q0 -4 1 -10t4 -9.5t9 -5.5t14 -2q96 0 97 109q0 111 -78 110 q-29 0 -37 -14t-8 -45v-106q0 -6 -1 -14.5t-1 -12.5z" />
<glyph unicode="&#xaf;" horiz-adv-x="1257" d="M211 1247q0 20 28.5 89t43.5 94q33 53 84 53l36 -2l230 -11l469 3l33 4q18 0 32.5 -12.5t14.5 -30.5q0 -61 -58 -177q-35 -61 -77 -61q-16 0 -50 4l-174 10l-526 -6h-29q-57 0 -57 43z" />
<glyph unicode="&#xb0;" horiz-adv-x="724" d="M80 1024q-2 127 89 217t218 90q125 0 216 -90t91 -217t-90 -217t-217 -90t-217 90t-90 217zM223 1024q0 -70 48 -117t116 -47q70 0 117 47t47 117t-46 117t-118 47q-70 0 -118 -47t-46 -117z" />
<glyph unicode="&#xb1;" d="M150 119q0 45 5 69.5t23.5 34.5t32.5 12.5t53 2.5h19h725h18q37 0 52.5 -2.5t33.5 -12.5t23.5 -34.5t5.5 -69.5t-5.5 -69.5t-23.5 -35t-32.5 -12.5t-53.5 -2h-18h-725h-19q-37 0 -52 2t-33.5 12.5t-23.5 35t-5 69.5zM150 663.5q0 45.5 5 70t23.5 34.5t32.5 12t53 2h19 h139q86 0 96 11q8 8 8 94v18q0 37 2 52.5t12.5 34t35 23.5t69.5 5t69.5 -5t35 -23.5t12.5 -33t2 -53.5v-18q0 -86 10 -94q12 -10 94 -11h140h18q37 0 52.5 -2t33.5 -12t23.5 -34.5t5.5 -70t-5.5 -70t-23.5 -34.5t-32.5 -12t-53.5 -2h-18h-140q-86 0 -94 -8q-10 -10 -10 -97 v-18q0 -37 -2 -52.5t-12.5 -34t-35 -23.5t-69.5 -5t-69.5 5t-35 23.5t-12.5 33t-2 53.5v18q0 90 -8 97q-10 8 -96 8h-139h-19q-37 0 -52 2t-33.5 12t-23.5 34.5t-5 70z" />
<glyph unicode="&#xb2;" horiz-adv-x="724" d="M43 551q0 29 43 72l90 75q78 61 162 152.5t84 145t-60 53.5q-45 0 -113.5 -47.5t-92.5 -47.5q-27 0 -47.5 25t-20.5 51q0 63 156 141q141 63 264 64q92 0 164.5 -38t72.5 -118q0 -68 -57 -135l-119 -121l-41 -37q-45 -45 -45 -57q0 -25 62 -24q18 -2 32.5 -1t27 7 t24.5 20q2 2 10 14.5t12 16.5t12.5 11t17.5 10t19 3q55 0 56 -75q0 -90 -41 -176q-45 -94 -103 -95q-29 0 -45 29q-12 20 -14 20q-8 4 -66 5h-288h-23.5h-29t-28 1t-29.5 5t-23.5 10t-17.5 16.5t-5 24.5z" />
<glyph unicode="&#xb3;" horiz-adv-x="724" d="M39 508q0 18 14.5 36.5t32.5 18.5q12 0 64.5 -19.5t99.5 -19.5q76 0 117 29q57 41 57 113q0 47 -23 67q-14 12 -71 12q-53 -4 -70.5 8.5t-17.5 61.5q0 27 5 38t29 17q51 14 90.5 46t39.5 75q0 57 -64 58q-55 0 -129 -58q-37 -29 -55 -28q-27 0 -45.5 23.5t-18.5 47.5 q0 72 144 137q131 63 249 64q92 0 160 -40t68 -120q0 -41 -20.5 -76.5t-41 -57t-20.5 -30.5q0 -10 17.5 -24.5t37 -28.5t36.5 -46t17 -73q0 -72 -33.5 -144.5t-93.5 -117.5q-123 -96 -311 -96q-37 0 -78 5t-85 18.5t-72.5 40t-28.5 63.5z" />
<glyph unicode="&#xb4;" horiz-adv-x="813" d="M350 1227q0 10 3 20t10.5 20.5t11.5 16.5t16.5 18.5l14.5 14.5q61 55 61 82q0 10 -6 22q-12 25 -12 33q0 43 87 66.5t150 23.5q27 0 55.5 -4t61.5 -13t53.5 -28.5t20.5 -46.5q0 -106 -164 -201.5t-281 -95.5q-35 0 -58.5 19.5t-23.5 52.5z" />
<glyph unicode="&#xb5;" horiz-adv-x="1394" d="M78 793q0 88 176 170q178 84 330 84q104 0 104 -117q0 -37 -9 -99.5t-28.5 -166t-21.5 -115.5q0 -2 -4 -20.5t-7.5 -37t-6.5 -44t-1 -47t6.5 -40t15.5 -30t30 -11.5q76 0 135 132q35 78 50 197.5t31.5 207.5t55.5 121q39 35 124 53.5t154 18.5q119 0 119 -88 q0 -16 -5 -55.5t-5 -47.5l-70 -395q-12 -61 -12 -94q0 -61 64 -62q31 -2 41 -3t20 -13t10 -39q0 -72 -92 -137.5t-198.5 -97t-176.5 -31.5q-45 0 -67.5 28.5t-25.5 62.5t-14.5 62.5t-33.5 28.5q-25 0 -79 -43t-81 -51l-24 -148q-23 -127 -101 -216t-207 -89 q-123 0 -168 96.5t-14 223.5q6 37 23.5 118.5t23.5 126.5q2 18 32 185.5t40 249.5q10 39 4 70.5t-51 37.5q-27 2 -42.5 6t-29.5 18.5t-14 39.5z" />
<glyph unicode="&#xb6;" horiz-adv-x="1290" d="M139 954q0 203 152.5 343.5t357.5 140.5q70 0 216.5 -16.5t224.5 -14.5q240 6 303 14q86 10 86 -67q0 -25 -8.5 -43.5t-30 -31.5t-34.5 -18.5t-44 -17.5q-84 -29 -100.5 -52.5t-30.5 -113.5l-4 -47l-185 -1302q-2 -8 -4 -29t-3 -26t-5 -18t-9 -16.5t-13.5 -9.5t-21.5 -7 t-32 -1h-10q-27 0 -38 1t-20 14.5t-5 37.5l196 1399q18 123 19 133q0 8 -3 14.5t-9.5 9.5t-11.5 5t-15 3t-15.5 1h-15.5h-12q-35 0 -47.5 -10t-16.5 -47l-207 -1461q-8 -74 -22 -86q-18 -14 -76 -14h-8h-9h-9.5t-10.5 1l-8 2t-7 4t-6 6.5t-4 7.5t-1 10q0 10 6 59l108 781 q12 86 13 90q0 14 -8.5 23t-28 11t-37 2t-48 -2t-50.5 -2q-174 0 -286 85t-112 255zM543 1012q0 -119 52 -172.5t101 -53.5q16 0 27.5 6.5t16.5 19.5t7.5 23.5t4.5 31t2 26.5l37 258q2 12 5 31.5t4 29t-1 19.5t-10.5 14t-22.5 4q-82 0 -152.5 -77.5t-70.5 -159.5z" />
<glyph unicode="&#xb7;" horiz-adv-x="604" d="M84 586q4 100 75.5 163.5t168 63.5t162 -63.5t61.5 -163.5q-4 -104 -76 -172t-168 -68t-161.5 67.5t-61.5 172.5z" />
<glyph unicode="&#xb8;" horiz-adv-x="659" d="M186 -334q0 37 33 61.5t74 32.5q59 8 59 41q0 23 -14 60l-23 61l-18 47h135l53 -102q74 -141 74 -186q0 -63 -64.5 -91t-138.5 -28q-61 0 -115.5 24.5t-54.5 79.5z" />
<glyph unicode="&#xb9;" horiz-adv-x="724" d="M96 561q0 33 17.5 42t56.5 13q25 4 35 6.5t20.5 11.5t20.5 25q10 12 17 33t12.5 51.5t7.5 36.5l14 146q-10 70 -57 69q-12 0 -41 -12q-4 -2 -13.5 -6t-16.5 -6t-13 -2q-37 0 -37 51q0 41 20.5 60.5t69.5 41.5q70 31 206 66t206 35q78 0 77 -58q0 -35 -45 -63 q-25 -14 -32 -23.5t-15 -38.5q-45 -184 -39 -338q2 -47 16.5 -59t67.5 -14q25 -2 31 -3t20.5 -6.5t18.5 -15.5t4 -26q0 -96 -317 -95h-17q-8 0 -35.5 -1t-50 -1t-55.5 1t-57.5 6.5t-48 13.5t-36 23.5t-12.5 35.5z" />
<glyph unicode="&#xba;" horiz-adv-x="839" d="M170 1085q0 164 122 274.5t283 110.5q119 0 200 -58t81 -173q0 -164 -121.5 -274.5t-283.5 -110.5q-119 0 -200 58.5t-81 172.5zM453 1034q-1 -45 32 -45q41 0 58 84q31 143 30 215q0 51 -32 51q-43 0 -62 -90q-27 -119 -26 -215z" />
<glyph unicode="&#xbb;" horiz-adv-x="1159" d="M61 186q0 51 123 186.5t123 190.5q0 47 -68.5 184.5t-68.5 184.5q0 35 28.5 58.5t65.5 23.5q80 0 233.5 -199t153.5 -283q0 -100 -203 -263t-305 -163q-31 0 -56.5 26t-25.5 54zM578 186q0 51 122.5 186.5t122.5 190.5q0 47 -68.5 184.5t-68.5 184.5q0 35 28.5 58.5 t65.5 23.5q80 0 233.5 -199t153.5 -283q0 -100 -203 -263t-305 -163q-31 0 -56 26t-25 54z" />
<glyph unicode="&#xbc;" horiz-adv-x="1843" d="M74 561q0 33 17.5 42t55.5 13q25 4 35.5 6.5t20.5 11.5t20 25q10 12 17.5 33t12.5 51.5t7 36.5l14 146q-10 70 -57 69q-12 0 -41 -12q-4 -2 -13 -6t-16.5 -6t-13.5 -2q-37 0 -37 51q0 41 20.5 60.5t69.5 41.5q70 31 206 66t206 35q78 0 78 -58q0 -35 -45 -63 q-25 -14 -32 -23.5t-15 -38.5q-45 -184 -39 -338q2 -47 16 -59t68 -14q25 -2 31 -3t20 -6.5t18 -15.5t4 -26q0 -96 -317 -95h-16q-8 0 -36 -1t-50.5 -1t-55 1t-57.5 6.5t-48.5 13.5t-35.5 23.5t-12 35.5zM485 -66q0 27 23 58l94 147l92 146l90 151l478 830q25 51 49 70.5 t75 19.5q98 0 99 -47q0 -39 -84 -158l-184 -299l-390 -662l-112 -208q-16 -35 -25.5 -50.5t-32 -32t-51.5 -16.5q-39 0 -80 11.5t-41 39.5zM1094 123q0 72 23.5 117t82.5 114l279 301q45 45 72.5 69t76.5 47.5t98 23.5q57 0 84 -17q16 -12 17 -41l-6 -59l-58 -402 q0 -4 -1 -13t-1 -13q0 -12 25 -12q37 -1 37 -21l-2 -33l-11 -102q0 -4 -1 -11.5t-1 -10.5t-1 -8t-2 -6l-4 -4t-5 -4t-7 -3t-10 -2h-14q-33 0 -36 -6q0 -2 -1.5 -6.5t-3.5 -16.5t-4 -27q-2 -10 -3 -23t-2 -23.5t-3 -14.5q-8 -16 -57 -16h-150h-9h-10h-9.5t-9.5 1t-7 3t-6 4 l-5 5t-4 8t-1 11l4 39l6 49q0 12 -39 13h-221q-59 0 -76 10q-25 14 -24 80zM1305 260q0 -23 69 -22h60q12 0 20 2t14.5 3t10.5 7t7 9t4 12.5t2 12.5t2 15t1 16l12 117l2 29q0 33 -12 33q-23 0 -107.5 -103.5t-84.5 -130.5z" />
<glyph unicode="&#xbd;" horiz-adv-x="1843" d="M74 561q0 33 17.5 42t55.5 13q25 4 35.5 6.5t20.5 11.5t20 25q10 12 17.5 33t12.5 51.5t7 36.5l14 146q-10 70 -57 69q-12 0 -41 -12q-4 -2 -13 -6t-16.5 -6t-13.5 -2q-37 0 -37 51q0 41 20.5 60.5t69.5 41.5q70 31 206 66t206 35q78 0 78 -58q0 -35 -45 -63 q-25 -14 -32 -23.5t-15 -38.5q-45 -184 -39 -338q2 -47 16 -59t68 -14q25 -2 31 -3t20 -6.5t18 -15.5t4 -26q0 -96 -317 -95h-16q-8 0 -36 -1t-50.5 -1t-55 1t-57.5 6.5t-48.5 13.5t-35.5 23.5t-12 35.5zM485 -66q0 27 23 58l94 147l92 146l90 151l478 830q25 51 49 70.5 t75 19.5q98 0 99 -47q0 -39 -84 -158l-184 -299l-390 -662l-112 -208q-16 -35 -25.5 -50.5t-32 -32t-51.5 -16.5q-39 0 -80 11.5t-41 39.5zM1128 57q0 29 43 72l91 76q78 61 161.5 152.5t83.5 144.5t-59 53q-45 0 -113.5 -47t-93.5 -47q-27 0 -47 24.5t-20 51.5 q0 63 155 141q141 63 264 63q92 0 165 -37.5t73 -117.5q0 -68 -57 -135l-119 -121l-41 -37q-45 -45 -45 -57q0 -31 61 -31q18 -2 32.5 -1t27 8t24.5 26q2 2 10.5 14t12.5 16t12 11.5t17.5 10.5t19.5 3q55 0 55 -76q0 -90 -41 -176q-45 -94 -102 -94q-29 0 -45 28 q-12 20 -15 21q-8 4 -65 4h-289h-23.5h-28.5t-27.5 1t-30 5t-23.5 10.5t-17.5 16.5t-5.5 24z" />
<glyph unicode="&#xbe;" horiz-adv-x="1843" d="M14 508q0 18 14.5 36.5t32.5 18.5q12 0 64.5 -19.5t99.5 -19.5q76 0 117 29q57 41 57 113q0 47 -22 67q-15 12 -72 12q-53 -4 -70.5 8.5t-17.5 61.5q0 27 5 38t30 17q51 14 90 46t39 75q0 57 -64 58q-55 0 -129 -58q-37 -29 -55 -28q-27 0 -45 23.5t-18 47.5 q0 72 143 137q131 63 250 64q92 0 159.5 -40t67.5 -120q0 -41 -20.5 -76.5t-41 -57t-20.5 -30.5q0 -10 17.5 -24.5t37 -28.5t37 -46t17.5 -73q0 -72 -34 -144.5t-93 -117.5q-123 -96 -311 -96q-37 0 -78 5t-85 18.5t-73 40t-29 63.5zM485 -66q0 27 23 58l94 147l92 146 l90 151l478 830q25 51 49 70.5t75 19.5q98 0 99 -47q0 -39 -84 -158l-184 -299l-390 -662l-112 -208q-16 -35 -25.5 -50.5t-32 -32t-51.5 -16.5q-39 0 -80 11.5t-41 39.5zM1094 123q0 72 23.5 117t82.5 114l279 301q45 45 72.5 69t76.5 47.5t98 23.5q57 0 84 -17 q16 -12 17 -41l-6 -59l-58 -402q0 -4 -1 -13t-1 -13q0 -12 25 -12q37 -1 37 -21l-2 -33l-11 -102q0 -4 -1 -11.5t-1 -10.5t-1 -8t-2 -6l-4 -4t-5 -4t-7 -3t-10 -2h-14q-33 0 -36 -6q0 -2 -1.5 -6.5t-3.5 -16.5t-4 -27q-2 -10 -3 -23t-2 -23.5t-3 -14.5q-8 -16 -57 -16h-150 h-9h-10h-9.5t-9.5 1t-7 3t-6 4l-5 5t-4 8t-1 11l4 39l6 49q0 12 -39 13h-221q-59 0 -76 10q-25 14 -24 80zM1305 260q0 -23 69 -22h60q12 0 20 2t14.5 3t10.5 7t7 9t4 12.5t2 12.5t2 15t1 16l12 117l2 29q0 33 -12 33q-23 0 -107.5 -103.5t-84.5 -130.5z" />
<glyph unicode="&#xbf;" horiz-adv-x="997" d="M14 -154q0 240 310 367q4 2 33.5 14.5t40 18.5t29.5 20.5t27.5 30.5t8.5 37q0 12 -8.5 32.5t-8.5 30.5q0 45 61.5 68.5t117.5 23.5q53 0 88 -28.5t35 -81.5q0 -80 -58.5 -166t-116 -166t-57.5 -143.5t49 -63.5q33 0 56.5 19.5t33 38t25.5 55.5q20 51 34.5 79.5t49.5 54.5 t84 26q55 0 88 -32t33 -87q0 -98 -62.5 -183t-156 -137.5t-196.5 -82t-192 -27.5q-143 4 -245.5 75.5t-102.5 206.5zM414 831q4 100 75.5 164t168 64t162 -63.5t61.5 -164.5q-4 -104 -76 -171.5t-168 -67.5t-161.5 67.5t-61.5 171.5z" />
<glyph unicode="&#xc0;" horiz-adv-x="1587" d="M-43 119q0 45 17.5 64.5t42 22.5t61.5 26.5t65 70.5q29 49 141.5 230.5t165 271.5t119 235.5t90.5 257.5q23 98 78.5 132t159.5 34q133 0 205 -66.5t121 -201.5q43 -123 215 -868q12 -55 38.5 -81t50 -29t42 -23.5t18.5 -65.5q0 -150 -407 -145h-25h-32.5h-42t-44 1 t-49 4t-45.5 9t-43 15.5t-32.5 20.5t-23.5 28.5t-7 39.5q0 39 20.5 61.5t45 29t45 23.5t20.5 50q0 23 -10.5 37t-18.5 18.5t-35 10.5t-33 8h-274q-72 -6 -95.5 -26.5t-23.5 -63.5q0 -20 18.5 -31.5t40 -15.5t40 -24.5t18.5 -57.5q0 -43 -19.5 -68.5t-108.5 -47t-253 -21.5 q-53 0 -85 3t-78 13t-69.5 41t-23.5 78zM573 1815q0 27 20.5 46t53.5 28t61.5 13.5t55.5 4.5q63 0 150 -23.5t87 -66.5q0 -8 -12 -33q-8 -16 -8 -23q0 -21 61 -82q2 -2 18.5 -18t20.5 -22.5t11.5 -20.5t7.5 -29q0 -33 -23.5 -52t-58.5 -19q-117 0 -281 95t-164 202zM639 610 q0 -27 61 -35h134q41 2 54 14.5t13 39.5q0 66 -38 176t-62 110q-35 0 -98.5 -135t-63.5 -170z" />
<glyph unicode="&#xc1;" horiz-adv-x="1587" d="M-43 119q0 45 17.5 64.5t42 22.5t61.5 26.5t65 70.5q29 49 141.5 230.5t165 271.5t119 235.5t90.5 257.5q23 98 78.5 132t159.5 34q133 0 205 -66.5t121 -201.5q43 -123 215 -868q12 -55 38.5 -81t50 -29t42 -23.5t18.5 -65.5q0 -150 -407 -145h-25h-32.5h-42t-44 1 t-49 4t-45.5 9t-43 15.5t-32.5 20.5t-23.5 28.5t-7 39.5q0 39 20.5 61.5t45 29t45 23.5t20.5 50q0 23 -10.5 37t-18.5 18.5t-35 10.5t-33 8h-274q-72 -6 -95.5 -26.5t-23.5 -63.5q0 -20 18.5 -31.5t40 -15.5t40 -24.5t18.5 -57.5q0 -43 -19.5 -68.5t-108.5 -47t-253 -21.5 q-53 0 -85 3t-78 13t-69.5 41t-23.5 78zM639 610q0 -27 61 -35h134q41 2 54 14.5t13 39.5q0 66 -38 176t-62 110q-35 0 -98.5 -135t-63.5 -170zM737 1589q0 10 3 20.5t10.5 20.5t11.5 16.5t16.5 18.5t14.5 14q61 55 61 82q0 10 -6 23q-12 25 -12 33q0 43 87 66.5t150 23.5 q27 0 55.5 -4.5t61.5 -13.5t53.5 -28.5t20.5 -45.5q0 -106 -164 -201.5t-281 -95.5q-35 0 -58.5 19t-23.5 52z" />
<glyph unicode="&#xc2;" horiz-adv-x="1587" d="M-43 119q0 45 17.5 64.5t42 22.5t61.5 26.5t65 70.5q29 49 141.5 230.5t165 271.5t119 235.5t90.5 257.5q23 98 78.5 132t159.5 34q133 0 205 -66.5t121 -201.5q43 -123 215 -868q12 -55 38.5 -81t50 -29t42 -23.5t18.5 -65.5q0 -150 -407 -145h-25h-32.5h-42t-44 1 t-49 4t-45.5 9t-43 15.5t-32.5 20.5t-23.5 28.5t-7 39.5q0 39 20.5 61.5t45 29t45 23.5t20.5 50q0 23 -10.5 37t-18.5 18.5t-35 10.5t-33 8h-274q-72 -6 -95.5 -26.5t-23.5 -63.5q0 -20 18.5 -31.5t40 -15.5t40 -24.5t18.5 -57.5q0 -43 -19.5 -68.5t-108.5 -47t-253 -21.5 q-53 0 -85 3t-78 13t-69.5 41t-23.5 78zM557 1597q0 76 121 142q8 6 66.5 41t101.5 60.5t91 49t67 23.5q61 0 189 -123t128 -186q0 -39 -25.5 -68t-62.5 -29q-49 0 -130 74t-120 74q-37 -1 -152 -64l-49 -26q-47 -25 -79.5 -39.5t-51.5 -14.5q-37 0 -65.5 25t-28.5 61z M639 610q0 -27 61 -35h134q41 2 54 14.5t13 39.5q0 66 -38 176t-62 110q-35 0 -98.5 -135t-63.5 -170z" />
<glyph unicode="&#xc3;" horiz-adv-x="1587" d="M-43 119q0 45 17.5 64.5t42 22.5t61.5 26.5t65 70.5q29 49 141.5 230.5t165 271.5t119 235.5t90.5 257.5q23 98 78.5 132t159.5 34q133 0 205 -66.5t121 -201.5q43 -123 215 -868q12 -55 38.5 -81t50 -29t42 -23.5t18.5 -65.5q0 -150 -407 -145h-25h-32.5h-42t-44 1 t-49 4t-45.5 9t-43 15.5t-32.5 20.5t-23.5 28.5t-7 39.5q0 39 20.5 61.5t45 29t45 23.5t20.5 50q0 23 -10.5 37t-18.5 18.5t-35 10.5t-33 8h-274q-72 -6 -95.5 -26.5t-23.5 -63.5q0 -20 18.5 -31.5t40 -15.5t40 -24.5t18.5 -57.5q0 -43 -19.5 -68.5t-108.5 -47t-253 -21.5 q-53 0 -85 3t-78 13t-69.5 41t-23.5 78zM504 1647q0 109 63.5 172t171.5 63q90 0 223.5 -59.5t147.5 -59.5q18 0 18 29q8 92 129 92q127 0 127 -117q0 -98 -60 -167.5t-157 -69.5q-66 0 -219 65.5t-190 65.5q-18 0 -23 -35q0 -47 -20 -63q-29 -27 -84 -27q-127 0 -127 111z M639 610q0 -27 61 -35h134q41 2 54 14.5t13 39.5q0 66 -38 176t-62 110q-35 0 -98.5 -135t-63.5 -170z" />
<glyph unicode="&#xc4;" horiz-adv-x="1587" d="M-43 119q0 45 17.5 64.5t42 22.5t61.5 26.5t65 70.5q29 49 141.5 230.5t165 271.5t119 235.5t90.5 257.5q23 98 78.5 132t159.5 34q133 0 205 -66.5t121 -201.5q43 -123 215 -868q12 -55 38.5 -81t50 -29t42 -23.5t18.5 -65.5q0 -150 -407 -145h-25h-32.5h-42t-44 1 t-49 4t-45.5 9t-43 15.5t-32.5 20.5t-23.5 28.5t-7 39.5q0 39 20.5 61.5t45 29t45 23.5t20.5 50q0 23 -10.5 37t-18.5 18.5t-35 10.5t-33 8h-274q-72 -6 -95.5 -26.5t-23.5 -63.5q0 -20 18.5 -31.5t40 -15.5t40 -24.5t18.5 -57.5q0 -43 -19.5 -68.5t-108.5 -47t-253 -21.5 q-53 0 -85 3t-78 13t-69.5 41t-23.5 78zM418 1651q0 96 131 154.5t242 58.5q53 0 96 -26t43 -75q0 -68 -101 -135q-117 -74 -256 -74q-59 0 -107 22.5t-48 74.5zM639 610q0 -27 61 -35h134q41 2 54 14.5t13 39.5q0 66 -38 176t-62 110q-35 0 -98.5 -135t-63.5 -170z M1032 1651q0 96 131 154.5t244 58.5q51 0 94 -27t43 -74q0 -68 -100 -135q-117 -74 -254 -74q-59 0 -108.5 22.5t-49.5 74.5z" />
<glyph unicode="&#xc5;" horiz-adv-x="1587" d="M-43 119q0 45 17.5 64.5t42 22.5t61.5 26.5t65 70.5q29 49 141.5 230.5t165 271.5t119 235.5t90.5 257.5q23 98 78.5 132t159.5 34q133 0 205 -66.5t121 -201.5q43 -123 215 -868q12 -55 38.5 -81t50 -29t42 -23.5t18.5 -65.5q0 -150 -407 -145h-25h-32.5h-42t-44 1 t-49 4t-45.5 9t-43 15.5t-32.5 20.5t-23.5 28.5t-7 39.5q0 39 20.5 61.5t45 29t45 23.5t20.5 50q0 23 -10.5 37t-18.5 18.5t-35 10.5t-33 8h-274q-72 -6 -95.5 -26.5t-23.5 -63.5q0 -20 18.5 -31.5t40 -15.5t40 -24.5t18.5 -57.5q0 -43 -19.5 -68.5t-108.5 -47t-253 -21.5 q-53 0 -85 3t-78 13t-69.5 41t-23.5 78zM639 610q0 -27 61 -35h134q41 2 54 14.5t13 39.5q0 66 -38 176t-62 110q-35 0 -98.5 -135t-63.5 -170zM668 1696q0 109 84 170q86 63 252 63q291 0 290 -200q0 -84 -49 -139.5t-116.5 -76t-151.5 -20.5q-309 0 -309 203zM881 1692 q0 -39 25.5 -63.5t66.5 -24.5q57 0 89 38.5t32 98.5q0 43 -25 67.5t-68 24.5q-57 0 -88.5 -41t-31.5 -100z" />
<glyph unicode="&#xc6;" horiz-adv-x="2189" d="M-43 102q0 53 22.5 73t74.5 44.5t93 65.5q113 115 323 368.5t331 413.5q150 195 149 248q0 121 201 121h643q88 0 149.5 12t69.5 12q59 0 115.5 -86t56.5 -219q0 -63 -31.5 -110.5t-91.5 -47.5q-45 0 -71.5 20.5t-41 50.5t-33 60.5t-60 51t-109.5 20.5 q-121 0 -150.5 -23.5t-40.5 -113.5l-12 -117q-10 -59 -5 -77.5t50 -18.5q41 0 61.5 29.5t25.5 64.5t26.5 64.5t64.5 29.5q137 0 138 -256q0 -47 -8.5 -105.5t-28 -121.5t-56 -105t-88 -42t-71 32.5t-18.5 70.5t-13 70.5t-57 32.5q-37 0 -50.5 -38.5t-13.5 -124.5v-91 q0 -96 17.5 -110t119.5 -14q88 0 148.5 27.5t88.5 66.5t49.5 76.5t51 65.5t74.5 28q123 0 123 -164q0 -133 -77 -241.5t-140 -108.5q-2 0 -47 8q-74 6 -125 6h-410q-100 0 -200 -6q-23 0 -64 -2t-73.5 -3t-63.5 -1q-47 0 -73 3t-58.5 13t-48 37t-15.5 70q0 51 24.5 78.5 t55.5 33.5t55.5 21.5t24.5 44.5q0 12 -6 20t-20.5 11.5t-22.5 4.5t-26.5 0t-20.5 -1h-142h-23.5h-27.5t-24.5 -2.5t-24.5 -5.5t-19.5 -9t-18.5 -14t-9 -21.5t-4 -29.5q0 -25 24.5 -64t24.5 -76q0 -39 -18.5 -65.5t-52 -36.5t-61.5 -13t-69 -3h-198q-145 0 -193 26 q-49 29 -49 92zM784 616.5q0 -16.5 7.5 -25.5t22.5 -12.5t26.5 -4.5t32 0t24.5 1q37 0 50.5 1.5t31.5 8.5t26.5 23.5t14.5 46.5l33 172q6 43 6 47q0 33 -33 33q-14 0 -35.5 -19.5t-39 -39t-39 -48t-23.5 -30.5l-58 -74q-47 -63 -47 -79.5z" />
<glyph unicode="&#xc7;" horiz-adv-x="1464" d="M90 528q0 231 109.5 444.5t310.5 351.5t440 140q59 0 115.5 -11t90.5 -23.5t40 -12.5q12 0 43 10.5t45 10.5q84 0 149.5 -108.5t65.5 -213.5q0 -92 -49 -154.5t-139 -62.5q-63 0 -108.5 42t-67 92t-65.5 92t-105 42q-94 0 -166 -108.5t-100.5 -228t-28.5 -207.5 q0 -123 53 -215.5t166 -92.5q117 0 244 127q4 4 34.5 37t48 49.5t47 34t56.5 17.5q59 0 90 -38t31 -100q0 -94 -61.5 -203.5t-149.5 -115.5q-43 -4 -84 -25q-207 -109 -377 -121q119 -168 119 -296q0 -63 -64.5 -91t-138.5 -28q-61 0 -115.5 24.5t-54.5 79.5q0 37 33 61.5 t74 32.5q59 8 59 41q0 57 -49 174q-240 12 -390.5 160t-150.5 393z" />
<glyph unicode="&#xc8;" horiz-adv-x="1427" d="M29 102q0 41 20.5 64.5t48 31t58 33t45.5 68.5q35 106 76.5 389t41.5 399q0 53 -19 84t-44 40.5t-44 31t-19 57.5q0 150 206 142q102 -4 156 -4q53 -2 160 -2h321q88 0 149.5 12t69.5 12q59 0 115.5 -86t56.5 -219q0 -63 -31.5 -110.5t-90.5 -47.5q-45 0 -72 20.5 t-41 50.5t-32.5 60.5t-60.5 51t-110 20.5q-41 0 -67.5 -3t-48 -5t-34 -15.5t-20.5 -20.5t-13 -34.5t-7 -43t-6.5 -60.5t-6.5 -72q-10 -59 -5 -77.5t50 -18.5q41 0 61.5 29.5t26 64.5t27 64.5t64.5 29.5q137 0 137 -256q0 -47 -8.5 -105.5t-27.5 -121.5t-56 -105t-88.5 -42 t-70.5 32.5t-18 70.5t-13.5 70.5t-57.5 32.5q-25 0 -40 -18t-20.5 -54t-6.5 -62.5t1 -69.5t2 -50q0 -96 17.5 -110t120.5 -14q88 0 148.5 27.5t88 66.5t49 76.5t51 65.5t74.5 28q123 0 123 -164q0 -133 -76.5 -241.5t-140.5 -108.5q-2 0 -47 8q-74 6 -125 6h-547 q-45 0 -139 -9t-139 -9q-172 0 -172 120zM494 1815q0 27 20.5 46t53 28t61 13.5t55.5 4.5q63 0 150.5 -23.5t87.5 -66.5q0 -8 -13 -33q-8 -16 -8 -23q1 -21 62 -82l18 -18t20.5 -22.5t11.5 -20.5t7 -29q0 -33 -23.5 -52t-58.5 -19q-117 0 -280.5 95t-163.5 202z" />
<glyph unicode="&#xc9;" horiz-adv-x="1427" d="M29 102q0 41 20.5 64.5t48 31t58 33t45.5 68.5q35 106 76.5 389t41.5 399q0 53 -19 84t-44 40.5t-44 31t-19 57.5q0 150 206 142q102 -4 156 -4q53 -2 160 -2h321q88 0 149.5 12t69.5 12q59 0 115.5 -86t56.5 -219q0 -63 -31.5 -110.5t-90.5 -47.5q-45 0 -72 20.5 t-41 50.5t-32.5 60.5t-60.5 51t-110 20.5q-41 0 -67.5 -3t-48 -5t-34 -15.5t-20.5 -20.5t-13 -34.5t-7 -43t-6.5 -60.5t-6.5 -72q-10 -59 -5 -77.5t50 -18.5q41 0 61.5 29.5t26 64.5t27 64.5t64.5 29.5q137 0 137 -256q0 -47 -8.5 -105.5t-27.5 -121.5t-56 -105t-88.5 -42 t-70.5 32.5t-18 70.5t-13.5 70.5t-57.5 32.5q-25 0 -40 -18t-20.5 -54t-6.5 -62.5t1 -69.5t2 -50q0 -96 17.5 -110t120.5 -14q88 0 148.5 27.5t88 66.5t49 76.5t51 65.5t74.5 28q123 0 123 -164q0 -133 -76.5 -241.5t-140.5 -108.5q-2 0 -47 8q-74 6 -125 6h-547 q-45 0 -139 -9t-139 -9q-172 0 -172 120zM657 1589q0 10 3.5 20.5t10.5 20.5t11 16.5t16.5 18.5t14.5 14q61 55 61 82q0 10 -6 23q-12 25 -12 33q0 43 87 66.5t150 23.5q27 0 55.5 -4.5t61.5 -13.5t53.5 -28.5t20.5 -45.5q0 -106 -164 -201.5t-281 -95.5q-35 0 -58.5 19 t-23.5 52z" />
<glyph unicode="&#xca;" horiz-adv-x="1427" d="M29 102q0 41 20.5 64.5t48 31t58 33t45.5 68.5q35 106 76.5 389t41.5 399q0 53 -19 84t-44 40.5t-44 31t-19 57.5q0 150 206 142q102 -4 156 -4q53 -2 160 -2h321q88 0 149.5 12t69.5 12q59 0 115.5 -86t56.5 -219q0 -63 -31.5 -110.5t-90.5 -47.5q-45 0 -72 20.5 t-41 50.5t-32.5 60.5t-60.5 51t-110 20.5q-41 0 -67.5 -3t-48 -5t-34 -15.5t-20.5 -20.5t-13 -34.5t-7 -43t-6.5 -60.5t-6.5 -72q-10 -59 -5 -77.5t50 -18.5q41 0 61.5 29.5t26 64.5t27 64.5t64.5 29.5q137 0 137 -256q0 -47 -8.5 -105.5t-27.5 -121.5t-56 -105t-88.5 -42 t-70.5 32.5t-18 70.5t-13.5 70.5t-57.5 32.5q-25 0 -40 -18t-20.5 -54t-6.5 -62.5t1 -69.5t2 -50q0 -96 17.5 -110t120.5 -14q88 0 148.5 27.5t88 66.5t49 76.5t51 65.5t74.5 28q123 0 123 -164q0 -133 -76.5 -241.5t-140.5 -108.5q-2 0 -47 8q-74 6 -125 6h-547 q-45 0 -139 -9t-139 -9q-172 0 -172 120zM477 1597q0 76 121 142q8 6 66.5 41t101.5 60.5t91 49t67 23.5q61 0 189 -123t128 -186q0 -39 -25.5 -68t-62.5 -29q-49 0 -130 74t-120 74q-36 -1 -151 -64l-47 -26q-49 -25 -82 -39.5t-52 -14.5q-37 0 -65.5 25t-28.5 61z" />
<glyph unicode="&#xcb;" horiz-adv-x="1427" d="M29 102q0 41 20.5 64.5t48 31t58 33t45.5 68.5q35 106 76.5 389t41.5 399q0 53 -19 84t-44 40.5t-44 31t-19 57.5q0 150 206 142q102 -4 156 -4q53 -2 160 -2h321q88 0 149.5 12t69.5 12q59 0 115.5 -86t56.5 -219q0 -63 -31.5 -110.5t-90.5 -47.5q-45 0 -72 20.5 t-41 50.5t-32.5 60.5t-60.5 51t-110 20.5q-41 0 -67.5 -3t-48 -5t-34 -15.5t-20.5 -20.5t-13 -34.5t-7 -43t-6.5 -60.5t-6.5 -72q-10 -59 -5 -77.5t50 -18.5q41 0 61.5 29.5t26 64.5t27 64.5t64.5 29.5q137 0 137 -256q0 -47 -8.5 -105.5t-27.5 -121.5t-56 -105t-88.5 -42 t-70.5 32.5t-18 70.5t-13.5 70.5t-57.5 32.5q-25 0 -40 -18t-20.5 -54t-6.5 -62.5t1 -69.5t2 -50q0 -96 17.5 -110t120.5 -14q88 0 148.5 27.5t88 66.5t49 76.5t51 65.5t74.5 28q123 0 123 -164q0 -133 -76.5 -241.5t-140.5 -108.5q-2 0 -47 8q-74 6 -125 6h-547 q-45 0 -139 -9t-139 -9q-172 0 -172 120zM338 1651q0 96 131 154.5t242 58.5q53 0 96 -26t43 -75q0 -68 -100 -135q-117 -74 -256 -74q-59 0 -107.5 22.5t-48.5 74.5zM952 1651q0 96 131 154.5t244 58.5q51 0 94 -27t43 -74q0 -68 -100 -135q-117 -74 -254 -74 q-59 0 -108.5 22.5t-49.5 74.5z" />
<glyph unicode="&#xcc;" horiz-adv-x="944" d="M27 135q0 45 28.5 65.5t64.5 25.5t70.5 44t42.5 113l84 676q0 8 5.5 43t5.5 59q0 33 -22.5 49.5t-49.5 20.5t-49.5 25.5t-22.5 62.5q0 51 43 78q88 55 357 55q258 0 352 -27.5t94 -107.5q0 -43 -25.5 -63.5t-56 -22.5t-60.5 -20.5t-36 -59.5q-2 -8 -25 -119l-79 -565 q-14 -104 -15 -135q0 -55 22.5 -84t50.5 -33t50.5 -24.5t22.5 -61.5t-30 -70.5t-67 -44t-98 -21.5t-94 -8t-84 -1h-12q-264 0 -365.5 30.5t-101.5 120.5zM252 1815q0 27 20.5 46t53 28t61.5 13.5t55 4.5q63 0 150.5 -23.5t87.5 -66.5q0 -8 -12 -33q-8 -16 -9 -23 q1 -21 62 -82q2 -2 18.5 -18t20.5 -22.5t11 -20.5t7 -29q0 -33 -23.5 -52t-58.5 -19q-117 0 -280.5 95t-163.5 202z" />
<glyph unicode="&#xcd;" horiz-adv-x="944" d="M27 135q0 45 28.5 65.5t64.5 25.5t70.5 44t42.5 113l84 676q0 8 5.5 43t5.5 59q0 33 -22.5 49.5t-49.5 20.5t-49.5 25.5t-22.5 62.5q0 51 43 78q88 55 357 55q258 0 352 -27.5t94 -107.5q0 -43 -25.5 -63.5t-56 -22.5t-60.5 -20.5t-36 -59.5q-2 -8 -25 -119l-79 -565 q-14 -104 -15 -135q0 -55 22.5 -84t50.5 -33t50.5 -24.5t22.5 -61.5t-30 -70.5t-67 -44t-98 -21.5t-94 -8t-84 -1h-12q-264 0 -365.5 30.5t-101.5 120.5zM539 1589q0 10 3 20.5t10 20.5t11 16.5t16.5 18.5t14.5 14q61 55 61 82q0 10 -6 23q-12 25 -12 33q0 43 87 66.5 t150 23.5q27 0 55.5 -4.5t61.5 -13.5t53.5 -28.5t20.5 -45.5q0 -106 -164 -201.5t-280 -95.5q-35 0 -58.5 19t-23.5 52z" />
<glyph unicode="&#xce;" horiz-adv-x="944" d="M27 135q0 45 28.5 65.5t64.5 25.5t70.5 44t42.5 113l84 676q0 8 5.5 43t5.5 59q0 33 -22.5 49.5t-49.5 20.5t-49.5 25.5t-22.5 62.5q0 51 43 78q88 55 357 55q258 0 352 -27.5t94 -107.5q0 -43 -25.5 -63.5t-56 -22.5t-60.5 -20.5t-36 -59.5q-2 -8 -25 -119l-79 -565 q-14 -104 -15 -135q0 -55 22.5 -84t50.5 -33t50.5 -24.5t22.5 -61.5t-30 -70.5t-67 -44t-98 -21.5t-94 -8t-84 -1h-12q-264 0 -365.5 30.5t-101.5 120.5zM276 1597q0 76 121 142q8 6 66.5 41t101.5 60.5t91.5 49t66.5 23.5q61 0 189 -123t128 -186q0 -39 -25.5 -68 t-62.5 -29q-49 0 -130 74t-120 74q-36 -1 -151 -64l-47 -26q-49 -25 -82 -39.5t-51 -14.5q-37 0 -66 25t-29 61z" />
<glyph unicode="&#xcf;" horiz-adv-x="944" d="M27 135q0 45 28.5 65.5t64.5 25.5t70.5 44t42.5 113l84 676q0 8 5.5 43t5.5 59q0 33 -22.5 49.5t-49.5 20.5t-49.5 25.5t-22.5 62.5q0 51 43 78q88 55 357 55q258 0 352 -27.5t94 -107.5q0 -43 -25.5 -63.5t-56 -22.5t-60.5 -20.5t-36 -59.5q-2 -8 -25 -119l-79 -565 q-14 -104 -15 -135q0 -55 22.5 -84t50.5 -33t50.5 -24.5t22.5 -61.5t-30 -70.5t-67 -44t-98 -21.5t-94 -8t-84 -1h-12q-264 0 -365.5 30.5t-101.5 120.5zM135 1651q0 96 131 154.5t242 58.5q53 0 96 -26t43 -75q0 -68 -100 -135q-117 -74 -256 -74q-59 0 -107.5 22.5 t-48.5 74.5zM750 1651q0 96 131 154.5t243 58.5q51 0 94.5 -27t43.5 -74q0 -68 -101 -135q-117 -74 -254 -74q-59 0 -108 22.5t-49 74.5z" />
<glyph unicode="&#xd0;" horiz-adv-x="1632" d="M49 113q0 47 20.5 70.5t47 27.5t55.5 22.5t41 57.5q18 53 43 198.5t25 182.5q0 23 -9.5 32t-33.5 9l-50 -2q-6 0 -25.5 -1t-33.5 -1q-41 0 -35 61l8 68q6 43 43 41l109 -5q53 0 59 23q16 104 17 205q0 55 -21.5 82.5t-47 32t-47 22.5t-21.5 59q0 47 19 77t58 42.5 t70 15.5t80 3h246q88 0 180 6q119 4 178 4t107.5 -3t117 -17.5t121.5 -38t110.5 -70.5t94.5 -110.5t61.5 -161t24.5 -218.5q0 -57 -6 -117.5t-27.5 -144.5t-55.5 -158.5t-96.5 -151.5t-144.5 -131t-206 -89t-275 -35h-463q-31 0 -88 -4q-61 -4 -90 -4q-76 0 -118 25.5 t-42 95.5zM762 336q0 -43 14.5 -65.5t57.5 -22.5q72 0 127 42t86.5 106.5t51 151.5t27 164.5t7.5 161.5q0 70 -7.5 122.5t-27 104.5t-61.5 80.5t-105 28.5q-35 0 -58.5 -11t-34 -31.5t-14.5 -38t-5 -41t-1 -27.5l-6 -86l-4 -51q0 -18 1 -26.5t7 -16t19 -7.5h28q20 0 44 1.5 t32 1.5q29 0 36 -14.5t5 -59.5q-4 -59 -13.5 -74.5t-47.5 -15.5q-8 0 -40 1t-40 1q-25 2 -37 -12.5t-15 -43.5l-18 -190q-8 -90 -8 -133z" />
<glyph unicode="&#xd1;" horiz-adv-x="1665" d="M0 115q0 43 30.5 62.5t69.5 34.5t52 46q43 117 72.5 251t39.5 209t24.5 222t16.5 172q6 51 -18.5 74.5t-57 24.5t-60.5 21.5t-28 67.5q0 41 20.5 71t51.5 45.5t88 23.5t107.5 10t134.5 2q135 0 189 -37t155 -196l231 -347q94 -141 117 -141q68 0 68 359q4 82 -21 114.5 t-57.5 28.5t-60 13.5t-27.5 72.5q0 23 1 33t18.5 32.5t51 35t105 22.5t174.5 10q158 0 233.5 -25.5t75.5 -107.5q0 -43 -28.5 -62.5t-62.5 -23.5t-65.5 -26.5t-35.5 -67.5q0 -2 -16.5 -79t-20.5 -114l-84 -581q-23 -158 -57.5 -243t-75.5 -111.5t-107 -26.5q-20 0 -39.5 4 t-38 13t-33 17.5t-32 25.5t-26.5 26.5t-25.5 33t-22.5 31.5t-23.5 34t-21.5 32l-299 450q-78 117 -109 117q-12 0 -22 -12.5t-15.5 -34t-8.5 -37.5t-7 -41l-2 -27q-8 -45 -19.5 -168.5t-11.5 -146.5q0 -47 22.5 -75.5t49.5 -39t49.5 -31t22.5 -51.5q0 -121 -273 -120 q-358 0 -358 131zM543 1647q0 109 63.5 172t171.5 63q90 0 223.5 -59.5t147.5 -59.5q18 0 18 29q8 92 129 92q127 0 127 -117q0 -98 -60 -167.5t-157 -69.5q-66 0 -219 65.5t-190 65.5q-18 0 -23 -35q0 -47 -20 -63q-29 -27 -84 -27q-127 0 -127 111z" />
<glyph unicode="&#xd2;" horiz-adv-x="1540" d="M88 532q0 252 120 466t327.5 340t453.5 126q268 0 437 -148.5t169 -412.5q0 -252 -119.5 -466t-327.5 -340t-454 -126q-268 0 -437 148.5t-169 412.5zM551 1815q0 27 20.5 46t53 28t61.5 13.5t55 4.5q63 0 150.5 -23.5t87.5 -66.5q0 -8 -12 -33q-8 -16 -9 -23 q1 -21 62 -82q2 -2 18.5 -18t20.5 -22.5t11 -20.5t7 -29q0 -33 -23.5 -52t-58.5 -19q-117 0 -280.5 95t-163.5 202zM639 496q0 -43 3 -78t14.5 -84t41 -75.5t72.5 -22.5q76 0 134.5 85t86 209.5t40.5 230t13 179.5q0 43 -3 78t-14 84t-41 75.5t-73 22.5q-76 0 -134 -85 t-85.5 -210t-41 -230.5t-13.5 -178.5z" />
<glyph unicode="&#xd3;" horiz-adv-x="1540" d="M88 532q0 252 120 466t327.5 340t453.5 126q268 0 437 -148.5t169 -412.5q0 -252 -119.5 -466t-327.5 -340t-454 -126q-268 0 -437 148.5t-169 412.5zM639 496q0 -43 3 -78t14.5 -84t41 -75.5t72.5 -22.5q76 0 134.5 85t86 209.5t40.5 230t13 179.5q0 43 -3 78t-14 84 t-41 75.5t-73 22.5q-76 0 -134 -85t-85.5 -210t-41 -230.5t-13.5 -178.5zM838 1589q0 10 3 20.5t10 20.5t11 16.5t16.5 18.5t14.5 14q61 55 61 82q0 10 -6 23q-12 25 -12 33q0 43 87 66.5t151 23.5q27 0 55 -4.5t61 -13.5t53.5 -28.5t20.5 -45.5q0 -106 -164 -201.5 t-280 -95.5q-35 0 -58.5 19t-23.5 52z" />
<glyph unicode="&#xd4;" horiz-adv-x="1540" d="M88 532q0 252 120 466t327.5 340t453.5 126q268 0 437 -148.5t169 -412.5q0 -252 -119.5 -466t-327.5 -340t-454 -126q-268 0 -437 148.5t-169 412.5zM616 1597q0 76 121 142q8 6 66.5 41t101.5 60.5t91 49t67 23.5q61 0 189 -123t128 -186q0 -39 -25.5 -68t-62.5 -29 q-49 0 -130 74t-120 74q-36 -1 -151 -64l-47 -26q-49 -25 -82 -39.5t-51 -14.5q-37 0 -66 25t-29 61zM639 496q0 -43 3 -78t14.5 -84t41 -75.5t72.5 -22.5q76 0 134.5 85t86 209.5t40.5 230t13 179.5q0 43 -3 78t-14 84t-41 75.5t-73 22.5q-76 0 -134 -85t-85.5 -210 t-41 -230.5t-13.5 -178.5z" />
<glyph unicode="&#xd5;" horiz-adv-x="1540" d="M88 532q0 252 120 466t327.5 340t453.5 126q268 0 437 -148.5t169 -412.5q0 -252 -119.5 -466t-327.5 -340t-454 -126q-268 0 -437 148.5t-169 412.5zM479 1647q0 109 63.5 172t172.5 63q90 0 223 -59.5t147 -59.5q19 0 19 29q8 92 129 92q127 0 127 -117 q0 -98 -60.5 -167.5t-156.5 -69.5q-66 0 -219.5 65.5t-190.5 65.5q-18 0 -22 -35q0 -47 -21 -63q-29 -27 -84 -27q-127 0 -127 111zM639 496q0 -43 3 -78t14.5 -84t41 -75.5t72.5 -22.5q76 0 134.5 85t86 209.5t40.5 230t13 179.5q0 43 -3 78t-14 84t-41 75.5t-73 22.5 q-76 0 -134 -85t-85.5 -210t-41 -230.5t-13.5 -178.5z" />
<glyph unicode="&#xd6;" horiz-adv-x="1540" d="M88 532q0 252 120 466t327.5 340t453.5 126q268 0 437 -148.5t169 -412.5q0 -252 -119.5 -466t-327.5 -340t-454 -126q-268 0 -437 148.5t-169 412.5zM557 1651q0 96 131 154.5t242 58.5q53 0 96 -26t43 -75q0 -68 -100 -135q-117 -74 -256 -74q-59 0 -107.5 22.5 t-48.5 74.5zM639 496q0 -43 3 -78t14.5 -84t41 -75.5t72.5 -22.5q76 0 134.5 85t86 209.5t40.5 230t13 179.5q0 43 -3 78t-14 84t-41 75.5t-73 22.5q-76 0 -134 -85t-85.5 -210t-41 -230.5t-13.5 -178.5zM1171 1651q0 96 131.5 154.5t243.5 58.5q51 0 94 -27t43 -74 q0 -68 -100 -135q-117 -74 -254 -74q-59 0 -108.5 22.5t-49.5 74.5z" />
<glyph unicode="&#xd7;" d="M178 205q2 23 66 86l159 160q59 59 60 73q0 16 -60 74l-159 160q-63 63 -66 86q0 37 53.5 92t94.5 55q20 0 86 -65l159 -160q8 -6 16.5 -15.5t13.5 -14.5t11 -10t10.5 -8t8.5 -6t7 -4t7 -1q14 0 74 59l160 160q66 66 86 65q41 0 94 -55t53 -92q-2 -23 -65 -86l-160 -160 q-59 -59 -60 -74q0 -4 2 -9t8.5 -12t11.5 -12.5t17.5 -18.5t20.5 -21l160 -160q63 -63 65 -86q0 -37 -53 -92.5t-94 -55.5q-20 0 -86 66l-160 160q-57 59 -74 59q-14 0 -74 -59l-159 -160q-66 -66 -86 -66q-41 0 -94.5 55.5t-53.5 92.5z" />
<glyph unicode="&#xd8;" horiz-adv-x="1540" d="M6 82q0 10 8.5 23.5t22.5 26.5t26.5 23.5t29 22.5t18.5 15l51 40q-74 123 -74 299q0 252 120 466t327.5 340t453.5 126q133 0 262 -44t203 -134l49 39q80 72 109 72q23 0 43 -20.5t20 -43.5q0 -8 -4 -17t-13 -18.5t-15.5 -14.5t-18.5 -14.5t-14 -11.5l-84 -65 q74 -141 69 -289q0 -252 -119.5 -466t-327.5 -340t-454 -126q-287 0 -458 166l-50 -41q-86 -78 -116 -78q-20 0 -42 21.5t-22 42.5zM637 463q2 -2 5 -39t11.5 -78t37 -75.5t73.5 -34.5q35 0 65.5 14t55 47t43 63.5t35 85t26.5 89t21.5 96t16.5 88.5t13 84zM645 627l399 340 q0 45 -4 76.5t-16 72.5t-40 62.5t-71 21.5q-66 0 -119 -66.5t-83.5 -164t-47 -187t-18.5 -155.5z" />
<glyph unicode="&#xd9;" horiz-adv-x="1628" d="M154 1284q0 41 12 62q74 106 463 106q115 0 187.5 -12.5t101 -38t36 -44t7.5 -46.5q0 -39 -16.5 -59.5t-41 -30t-50.5 -22.5t-46.5 -53t-26.5 -106q-68 -532 -67 -544q-18 -233 190 -234q201 0 268 187q45 123 70 316t25 353q0 53 -26 78t-55.5 29t-55 26.5t-25.5 71.5 q0 66 67.5 97.5t255.5 31.5q98 0 166 -11t99.5 -23.5t47 -35t16.5 -29.5t1 -26q0 -49 -24.5 -72.5t-55 -27.5t-60.5 -31t-38 -82l-63 -420q-14 -96 -25.5 -157.5t-36 -145.5t-55.5 -137t-82 -112.5t-117.5 -92.5t-162 -55.5t-212.5 -22.5q-129 0 -236.5 22.5t-195.5 71 t-137 135.5t-49 206q0 121 41 363.5t41 346.5q0 47 -21.5 67.5t-47 22.5t-46 19.5t-20.5 58.5zM594 1815q0 27 20.5 46t53 28t61.5 13.5t55 4.5q63 0 150.5 -23.5t87.5 -66.5q0 -8 -12 -33q-8 -16 -9 -23q1 -21 62 -82q2 -2 18.5 -18t20.5 -22.5t11 -20.5t7 -29 q0 -33 -23.5 -52t-58.5 -19q-117 0 -280.5 95t-163.5 202z" />
<glyph unicode="&#xda;" horiz-adv-x="1628" d="M154 1284q0 41 12 62q74 106 463 106q115 0 187.5 -12.5t101 -38t36 -44t7.5 -46.5q0 -39 -16.5 -59.5t-41 -30t-50.5 -22.5t-46.5 -53t-26.5 -106q-68 -532 -67 -544q-18 -233 190 -234q201 0 268 187q45 123 70 316t25 353q0 53 -26 78t-55.5 29t-55 26.5t-25.5 71.5 q0 66 67.5 97.5t255.5 31.5q98 0 166 -11t99.5 -23.5t47 -35t16.5 -29.5t1 -26q0 -49 -24.5 -72.5t-55 -27.5t-60.5 -31t-38 -82l-63 -420q-14 -96 -25.5 -157.5t-36 -145.5t-55.5 -137t-82 -112.5t-117.5 -92.5t-162 -55.5t-212.5 -22.5q-129 0 -236.5 22.5t-195.5 71 t-137 135.5t-49 206q0 121 41 363.5t41 346.5q0 47 -21.5 67.5t-47 22.5t-46 19.5t-20.5 58.5zM881 1589q0 10 3 20.5t10 20.5t11 16.5t16.5 18.5t14.5 14q61 55 61 82q0 10 -6 23q-12 25 -12 33q0 43 87 66.5t151 23.5q27 0 55 -4.5t61 -13.5t53.5 -28.5t20.5 -45.5 q0 -106 -164 -201.5t-280 -95.5q-35 0 -58.5 19t-23.5 52z" />
<glyph unicode="&#xdb;" horiz-adv-x="1628" d="M154 1284q0 41 12 62q74 106 463 106q115 0 187.5 -12.5t101 -38t36 -44t7.5 -46.5q0 -39 -16.5 -59.5t-41 -30t-50.5 -22.5t-46.5 -53t-26.5 -106q-68 -532 -67 -544q-18 -233 190 -234q201 0 268 187q45 123 70 316t25 353q0 53 -26 78t-55.5 29t-55 26.5t-25.5 71.5 q0 66 67.5 97.5t255.5 31.5q98 0 166 -11t99.5 -23.5t47 -35t16.5 -29.5t1 -26q0 -49 -24.5 -72.5t-55 -27.5t-60.5 -31t-38 -82l-63 -420q-14 -96 -25.5 -157.5t-36 -145.5t-55.5 -137t-82 -112.5t-117.5 -92.5t-162 -55.5t-212.5 -22.5q-129 0 -236.5 22.5t-195.5 71 t-137 135.5t-49 206q0 121 41 363.5t41 346.5q0 47 -21.5 67.5t-47 22.5t-46 19.5t-20.5 58.5zM659 1597q0 76 121 142q8 6 66.5 41t101.5 60.5t91 49t67 23.5q61 0 189 -123t128 -186q0 -39 -25.5 -68t-62.5 -29q-49 0 -130 74t-120 74q-36 -1 -151 -64l-49 -26 q-47 -25 -80 -39.5t-51 -14.5q-37 0 -66 25t-29 61z" />
<glyph unicode="&#xdc;" horiz-adv-x="1628" d="M154 1284q0 41 12 62q74 106 463 106q115 0 187.5 -12.5t101 -38t36 -44t7.5 -46.5q0 -39 -16.5 -59.5t-41 -30t-50.5 -22.5t-46.5 -53t-26.5 -106q-68 -532 -67 -544q-18 -233 190 -234q201 0 268 187q45 123 70 316t25 353q0 53 -26 78t-55.5 29t-55 26.5t-25.5 71.5 q0 66 67.5 97.5t255.5 31.5q98 0 166 -11t99.5 -23.5t47 -35t16.5 -29.5t1 -26q0 -49 -24.5 -72.5t-55 -27.5t-60.5 -31t-38 -82l-63 -420q-14 -96 -25.5 -157.5t-36 -145.5t-55.5 -137t-82 -112.5t-117.5 -92.5t-162 -55.5t-212.5 -22.5q-129 0 -236.5 22.5t-195.5 71 t-137 135.5t-49 206q0 121 41 363.5t41 346.5q0 47 -21.5 67.5t-47 22.5t-46 19.5t-20.5 58.5zM602 1651q0 96 131 154.5t242 58.5q53 0 96 -26t43 -75q0 -68 -100 -135q-117 -74 -256 -74q-59 0 -107.5 22.5t-48.5 74.5zM1217 1651q0 96 131 154.5t243 58.5q51 0 94.5 -27 t43.5 -74q0 -68 -101 -135q-117 -74 -254 -74q-59 0 -108 22.5t-49 74.5z" />
<glyph unicode="&#xdd;" horiz-adv-x="1441" d="M115 1305q0 84 105.5 115.5t395.5 31.5q160 0 218.5 -27.5t58.5 -91.5q0 -33 -14.5 -54.5t-32 -30.5t-31.5 -23.5t-14 -32.5q0 -31 42 -114t66 -85q20 -2 90 94.5t70 116.5q0 16 -35 52t-35 77q0 119 301 119q139 0 205 -25.5t66 -89.5q0 -49 -37 -69.5t-89 -32.5 t-73 -39l-239 -295q-98 -121 -118 -176t-28 -219l-8 -240q-2 -35 20.5 -51t50 -18t51 -19.5t23.5 -52.5q0 -20 -1 -30.5t-21.5 -35t-58 -38t-120.5 -25.5t-200 -12q-100 0 -157.5 3t-125 13t-98.5 36.5t-31 67.5q0 43 25.5 66t57.5 28t60.5 22.5t32.5 49.5l58 414 q-1 51 -56 141l-206 336q-23 29 -54.5 46.5t-55 23.5t-41 24.5t-17.5 49.5zM707 1671q0 10 3 20.5t10 20.5t11 16.5t16.5 18.5t14.5 14q61 55 61 82q0 10 -6 23q-12 25 -12 32q0 43 87 67t150 24q27 0 55.5 -4.5t61.5 -13.5t53.5 -28.5t20.5 -46.5q0 -106 -164 -201.5 t-281 -95.5q-35 0 -58 19.5t-23 52.5z" />
<glyph unicode="&#xde;" horiz-adv-x="1366" d="M29 121q0 39 18.5 59.5t43 24.5t49 19.5t32.5 45.5q47 164 90 462t43 417q0 41 -22.5 58.5t-50 18.5t-50 19.5t-22.5 61.5q0 88 96 116.5t356 28.5q168 0 245 -15.5t93.5 -41t12.5 -80.5q-4 -41 -32 -60.5t-59.5 -22.5t-57.5 -27.5t-26 -76.5q0 -47 31 -47q16 0 53 4.5 t54 4.5q223 4 372.5 -80t147.5 -246q-2 -123 -91 -209t-215 -122t-278 -36q-14 0 -45 2t-47 2q-43 0 -55.5 -19.5t-12.5 -66.5q0 -57 21.5 -82.5t46.5 -26.5t46.5 -18.5t21.5 -62.5q0 -78 -99.5 -109.5t-347.5 -31.5q-104 0 -177 10t-107.5 22.5t-54 35t-21.5 34.5t-2 35z M727 659q0 -51 6 -65q8 -23 51 -23q94 0 160 40t66 118q0 88 -43 130t-107 42q-102 0 -110 -55z" />
<glyph unicode="&#xdf;" horiz-adv-x="1413" d="M31 117q0 45 47 80q4 4 17.5 12t16.5 11t9 11.5t10 20.5q9 19 19 80l79 456q23 113 36.5 170.5t52 139.5t96.5 143q190 207 465 207q154 0 251 -62q125 -78 125 -202q0 -59 -33.5 -132t-33.5 -106q0 -45 57.5 -142t115.5 -219t58 -227q0 -170 -98 -262 q-121 -111 -289 -110q-137 0 -213 84q-59 66 -59 100q0 41 33 41q10 0 24 -6q49 -18 82 14.5t33 83.5q0 76 -47 178l-64 137q-53 113 -53 203q0 68 35 118t78 73.5t77.5 58.5t34.5 74q0 31 -19.5 53.5t-47.5 22.5q-109 0 -195 -166q-45 -86 -80 -316l-33 -239l-22 -232 q0 -53 38 -87t38 -66q0 -131 -318 -131h-14q-57 0 -94 2t-95.5 13t-89 41t-30.5 77z" />
<glyph unicode="&#xe0;" horiz-adv-x="1290" d="M88 305q8 184 81 348t200 271.5t280 122.5q61 6 113.5 -14.5t88.5 -45t58 -24.5q18 0 78 32q106 54 174 54q90 0 84 -78q-4 -51 -28.5 -229.5t-32.5 -299.5q-6 -109 2 -131q8 -23 37 -24h8q51 -6 51 -51q0 -90 -154.5 -171t-257.5 -81q-61 0 -91.5 27.5t-32 59t-8.5 59.5 t-27 28q-18 0 -66.5 -46t-127.5 -92.5t-171 -46.5q-133 0 -198.5 97.5t-59.5 234.5zM467 1452q0 27 20.5 46.5t53 28.5t61.5 13t55 4q63 0 150.5 -23.5t87.5 -66.5q0 -8 -12 -33q-8 -16 -9 -22q1 -21 62 -82l18.5 -18.5t20.5 -22.5t11 -20.5t7 -28.5q0 -33 -23.5 -52.5 t-58.5 -19.5q-117 0 -280.5 95.5t-163.5 201.5zM545 375q0 -20 3 -36.5t14.5 -31t29.5 -12.5q74 6 158 187.5t79 271.5q0 27 -9 47t-32 18q-76 -6 -160.5 -172t-82.5 -272z" />
<glyph unicode="&#xe1;" horiz-adv-x="1290" d="M88 305q8 184 81 348t200 271.5t280 122.5q61 6 113.5 -14.5t88.5 -45t58 -24.5q18 0 78 32q106 54 174 54q90 0 84 -78q-4 -51 -28.5 -229.5t-32.5 -299.5q-6 -109 2 -131q8 -23 37 -24h8q51 -6 51 -51q0 -90 -154.5 -171t-257.5 -81q-61 0 -91.5 27.5t-32 59t-8.5 59.5 t-27 28q-18 0 -66.5 -46t-127.5 -92.5t-171 -46.5q-133 0 -198.5 97.5t-59.5 234.5zM545 375q0 -20 3 -36.5t14.5 -31t29.5 -12.5q74 6 158 187.5t79 271.5q0 27 -9 47t-32 18q-76 -6 -160.5 -172t-82.5 -272zM631 1227q0 10 3 20t10 20.5l11 16.5t16.5 18.5l14.5 14.5 q61 55 62 82q0 10 -7 22q-12 25 -12 33q0 43 87 66.5t151 23.5q27 0 55.5 -4t61 -13t53 -28.5t20.5 -46.5q0 -106 -164 -201.5t-280 -95.5q-35 0 -58.5 19.5t-23.5 52.5z" />
<glyph unicode="&#xe2;" horiz-adv-x="1290" d="M88 305q8 184 81 348t200 271.5t280 122.5q61 6 113.5 -14.5t88.5 -45t58 -24.5q18 0 78 32q106 54 174 54q90 0 84 -78q-4 -51 -28.5 -229.5t-32.5 -299.5q-6 -109 2 -131q8 -23 37 -24h8q51 -6 51 -51q0 -90 -154.5 -171t-257.5 -81q-61 0 -91.5 27.5t-32 59t-8.5 59.5 t-27 28q-18 0 -66.5 -46t-127.5 -92.5t-171 -46.5q-133 0 -198.5 97.5t-59.5 234.5zM410 1235q0 76 120 141q8 6 66.5 41t101.5 60.5t91.5 49t66.5 23.5q61 0 189.5 -122.5t128.5 -186.5q0 -39 -26 -67.5t-63 -28.5q-49 0 -130 73.5t-119 73.5q-37 0 -152 -63l-49 -25 q-47 -27 -80 -41t-51 -14q-37 0 -65.5 24.5t-28.5 61.5zM545 375q0 -20 3 -36.5t14.5 -31t29.5 -12.5q74 6 158 187.5t79 271.5q0 27 -9 47t-32 18q-76 -6 -160.5 -172t-82.5 -272z" />
<glyph unicode="&#xe3;" horiz-adv-x="1290" d="M88 305q8 184 81 348t200 271.5t280 122.5q61 6 113.5 -14.5t88.5 -45t58 -24.5q18 0 78 32q106 54 174 54q90 0 84 -78q-4 -51 -28.5 -229.5t-32.5 -299.5q-6 -109 2 -131q8 -23 37 -24h8q51 -6 51 -51q0 -90 -154.5 -171t-257.5 -81q-61 0 -91.5 27.5t-32 59t-8.5 59.5 t-27 28q-18 0 -66.5 -46t-127.5 -92.5t-171 -46.5q-133 0 -198.5 97.5t-59.5 234.5zM354 1284q0 109 63.5 172.5t172.5 63.5q90 0 223 -59.5t148 -59.5q18 0 18 29q8 92 129 92q127 0 127 -117q0 -98 -60.5 -168t-156.5 -70q-66 0 -219.5 65.5t-190.5 65.5q-18 0 -22 -34 q0 -47 -21 -64q-29 -27 -84 -26q-127 0 -127 110zM545 375q0 -20 3 -36.5t14.5 -31t29.5 -12.5q74 6 158 187.5t79 271.5q0 27 -9 47t-32 18q-76 -6 -160.5 -172t-82.5 -272z" />
<glyph unicode="&#xe4;" horiz-adv-x="1290" d="M88 305q8 184 81 348t200 271.5t280 122.5q61 6 113.5 -14.5t88.5 -45t58 -24.5q18 0 78 32q106 54 174 54q90 0 84 -78q-4 -51 -28.5 -229.5t-32.5 -299.5q-6 -109 2 -131q8 -23 37 -24h8q51 -6 51 -51q0 -90 -154.5 -171t-257.5 -81q-61 0 -91.5 27.5t-32 59t-8.5 59.5 t-27 28q-18 0 -66.5 -46t-127.5 -92.5t-171 -46.5q-133 0 -198.5 97.5t-59.5 234.5zM268 1288q0 96 131 154.5t242 58.5q53 0 96 -25.5t43 -74.5q0 -68 -100 -135q-117 -74 -256 -74q-59 0 -107.5 22.5t-48.5 73.5zM545 375q0 -20 3 -36.5t14.5 -31t29.5 -12.5 q74 6 158 187.5t79 271.5q0 27 -9 47t-32 18q-76 -6 -160.5 -172t-82.5 -272zM883 1288q0 96 131 154.5t243 58.5q51 0 94.5 -26.5t43.5 -73.5q0 -68 -101 -135q-117 -74 -254 -74q-59 0 -108 22.5t-49 73.5z" />
<glyph unicode="&#xe5;" horiz-adv-x="1290" d="M88 305q8 184 81 348t200 271.5t280 122.5q61 6 113.5 -14.5t88.5 -45t58 -24.5q18 0 78 32q106 54 174 54q90 0 84 -78q-4 -51 -28.5 -229.5t-32.5 -299.5q-6 -109 2 -131q8 -23 37 -24h8q51 -6 51 -51q0 -90 -154.5 -171t-257.5 -81q-61 0 -91.5 27.5t-32 59t-8.5 59.5 t-27 28q-18 0 -66.5 -46t-127.5 -92.5t-171 -46.5q-133 0 -198.5 97.5t-59.5 234.5zM539 1333q0 109 84 170q85 64 251 64q291 0 291 -201q0 -84 -49 -139.5t-116.5 -76t-151.5 -20.5q-309 0 -309 203zM545 375q0 -20 3 -36.5t14.5 -31t29.5 -12.5q74 6 158 187.5t79 271.5 q0 27 -9 47t-32 18q-76 -6 -160.5 -172t-82.5 -272zM752 1329q0 -39 25.5 -63.5t66.5 -24.5q57 0 89 39t32 98q0 43 -25 67.5t-68 24.5q-57 0 -88.5 -40.5t-31.5 -100.5z" />
<glyph unicode="&#xe6;" horiz-adv-x="1822" d="M100 305q8 184 81 348t200 271.5t281 122.5q61 6 113 -14.5t88 -45t59 -24.5q29 2 113.5 49t125.5 47q27 0 42.5 -10.5t19.5 -21.5t11 -21.5t17 -10.5q6 0 15 4q154 59 299 60q123 0 204.5 -61.5t81.5 -182.5q0 -178 -162.5 -309t-345.5 -131q-80 0 -79 -43 q0 -41 41 -66.5t84 -25.5q84 0 193.5 58t131.5 58q31 0 56.5 -27.5t25.5 -58.5q0 -113 -221 -215q-184 -82 -354 -82q-121 0 -199 32t-154 116q-2 2 -17 19.5t-24.5 27.5t-24 20.5t-24.5 10.5q-20 0 -81.5 -56.5t-152.5 -113t-186 -56.5q-133 0 -198.5 97.5t-59.5 234.5z M557 375q0 -20 3 -36.5t14.5 -31t29.5 -12.5q74 6 158 187.5t80 271.5q0 27 -9.5 47t-31.5 18q-76 -6 -161 -172t-83 -272zM1266 610q0 -67 41 -67q49 0 98 98t49 154q0 61 -51 61q-55 0 -96 -91t-41 -155z" />
<glyph unicode="&#xe7;" horiz-adv-x="1126" d="M80 360q0 283 216 491t499 208q137 0 238.5 -69.5t105.5 -203.5q4 -96 -70 -173.5t-170 -77.5q-55 0 -103 33.5t-48 88.5q0 31 17 77t17 61q0 16 -10 26t-27 10q-45 0 -79.5 -52t-52 -124.5t-24.5 -140.5t-5 -106q0 -168 100 -168q84 -1 207 71q72 43 100 43 q37 0 58.5 -36.5t21.5 -75.5q0 -82 -149 -162q-164 -90 -330 -103q131 -236 131 -296q0 -63 -64.5 -91t-138.5 -28q-61 0 -115.5 24.5t-54.5 79.5q0 37 33 61.5t74 32.5q37 6 48 14.5t11 26.5q0 33 -61 176q-170 14 -272.5 109.5t-102.5 273.5z" />
<glyph unicode="&#xe8;" horiz-adv-x="1157" d="M80 356q8 205 128 369t296 249t364 85q133 0 216 -58.5t83 -185.5q0 -178 -162.5 -309t-345.5 -131q-80 0 -79 -43q0 -41 41 -66.5t84 -25.5q84 0 193.5 58t131.5 58q31 0 56.5 -27.5t25.5 -58.5q0 -113 -221 -215q-184 -82 -354 -82q-131 0 -232.5 37t-165 126 t-59.5 220zM358 1452q0 27 20.5 46.5t53.5 28.5t61.5 13t55.5 4q63 0 150 -23.5t87 -66.5q0 -8 -12 -33q-8 -16 -8 -22q0 -21 61 -82l18.5 -18.5t20.5 -22.5t11.5 -20.5t7.5 -28.5q0 -33 -23.5 -52.5t-58.5 -19.5q-117 0 -281 95.5t-164 201.5zM575 600q0 -57 37 -57 q45 0 100.5 89t51.5 161q-4 63 -47 63q-55 0 -98.5 -95t-43.5 -161z" />
<glyph unicode="&#xe9;" horiz-adv-x="1157" d="M80 356q8 205 128 369t296 249t364 85q133 0 216 -58.5t83 -185.5q0 -178 -162.5 -309t-345.5 -131q-80 0 -79 -43q0 -41 41 -66.5t84 -25.5q84 0 193.5 58t131.5 58q31 0 56.5 -27.5t25.5 -58.5q0 -113 -221 -215q-184 -82 -354 -82q-131 0 -232.5 37t-165 126 t-59.5 220zM563 1227q0 10 3 20t10.5 20.5t11.5 16.5t16 18.5t14 14.5q61 55 62 82q0 10 -6 22q-12 25 -12 33q0 43 87 66.5t150 23.5q27 0 55.5 -4t61.5 -13t53.5 -28.5t20.5 -46.5q0 -106 -164 -201.5t-281 -95.5q-35 0 -58.5 19.5t-23.5 52.5zM575 600q0 -57 37 -57 q45 0 100.5 89t51.5 161q-4 63 -47 63q-55 0 -98.5 -95t-43.5 -161z" />
<glyph unicode="&#xea;" horiz-adv-x="1157" d="M80 356q8 205 128 369t296 249t364 85q133 0 216 -58.5t83 -185.5q0 -178 -162.5 -309t-345.5 -131q-80 0 -79 -43q0 -41 41 -66.5t84 -25.5q84 0 193.5 58t131.5 58q31 0 56.5 -27.5t25.5 -58.5q0 -113 -221 -215q-184 -82 -354 -82q-131 0 -232.5 37t-165 126 t-59.5 220zM342 1235q0 76 121 141q8 6 66.5 41t101.5 60.5t91 49t66 23.5q61 0 189.5 -122.5t128.5 -186.5q0 -39 -25.5 -67.5t-62.5 -28.5q-49 0 -130 73.5t-120 73.5q-37 0 -152 -63l-47 -25q-49 -27 -81.5 -41t-51.5 -14q-37 0 -65.5 24.5t-28.5 61.5zM575 600 q0 -57 37 -57q45 0 100.5 89t51.5 161q-4 63 -47 63q-55 0 -98.5 -95t-43.5 -161z" />
<glyph unicode="&#xeb;" horiz-adv-x="1157" d="M80 356q8 205 128 369t296 249t364 85q133 0 216 -58.5t83 -185.5q0 -178 -162.5 -309t-345.5 -131q-80 0 -79 -43q0 -41 41 -66.5t84 -25.5q84 0 193.5 58t131.5 58q31 0 56.5 -27.5t25.5 -58.5q0 -113 -221 -215q-184 -82 -354 -82q-131 0 -232.5 37t-165 126 t-59.5 220zM203 1288q0 96 131 154.5t241 58.5q53 0 96.5 -25.5t43.5 -74.5q0 -68 -101 -135q-117 -74 -256 -74q-59 0 -107 22.5t-48 73.5zM575 600q0 -57 37 -57q45 0 100.5 89t51.5 161q-4 63 -47 63q-55 0 -98.5 -95t-43.5 -161zM817 1288q0 96 131 154.5t244 58.5 q51 0 94 -26.5t43 -73.5q0 -68 -100 -135q-117 -74 -254 -74q-59 0 -108.5 22.5t-49.5 73.5z" />
<glyph unicode="&#xec;" horiz-adv-x="757" d="M110.5 807q0.5 41 30 73.5t56 47t75.5 35.5q203 86 357 86q92 0 92 -95q0 -65 -45 -354l-25 -164q-16 -106 -16 -110q0 -27 12 -33t43 -6q25 0 36 -2t21.5 -14.5t10.5 -34.5q0 -82 -129 -158q-154 -92 -312 -92q-63 0 -114 35.5t-51 97.5q0 37 12 114l53 349 q16 106 16 110q0 25 -9 34t-34 9q-43 0 -53 8q-27 23 -26.5 64zM160 1452q0 27 20.5 46.5t53 28.5t61.5 13t55 4q63 0 150.5 -23.5t87.5 -66.5q0 -8 -13 -33q-8 -16 -8 -22q1 -21 62 -82l18.5 -18.5t20.5 -22.5t11 -20.5t7 -28.5q0 -33 -23.5 -52.5t-58.5 -19.5 q-117 0 -280.5 95.5t-163.5 201.5z" />
<glyph unicode="&#xed;" horiz-adv-x="757" d="M110.5 807q0.5 41 30 73.5t56 47t75.5 35.5q203 86 357 86q92 0 92 -95q0 -65 -45 -354l-25 -164q-16 -106 -16 -110q0 -27 12 -33t43 -6q25 0 36 -2t21.5 -14.5t10.5 -34.5q0 -82 -129 -158q-154 -92 -312 -92q-63 0 -114 35.5t-51 97.5q0 37 12 114l53 349 q16 106 16 110q0 25 -9 34t-34 9q-43 0 -53 8q-27 23 -26.5 64zM324 1227q0 10 3 20t10 20.5l11 16.5t16.5 18.5l14.5 14.5q61 55 61 82q0 10 -6 22q-12 25 -12 33q0 43 87 66.5t150 23.5q27 0 55.5 -4t61.5 -13t53.5 -28.5t20.5 -46.5q0 -106 -164 -201.5t-280 -95.5 q-35 0 -58.5 19.5t-23.5 52.5z" />
<glyph unicode="&#xee;" horiz-adv-x="757" d="M110.5 807q0.5 41 30 73.5t56 47t75.5 35.5q203 86 357 86q92 0 92 -95q0 -65 -45 -354l-25 -164q-16 -106 -16 -110q0 -27 12 -33t43 -6q25 0 36 -2t21.5 -14.5t10.5 -34.5q0 -82 -129 -158q-154 -92 -312 -92q-63 0 -114 35.5t-51 97.5q0 37 12 114l53 349 q16 106 16 110q0 25 -9 34t-34 9q-43 0 -53 8q-27 23 -26.5 64zM143 1235q0 76 121 141q8 6 66.5 41t101.5 60.5t91 49t67 23.5q61 0 189 -122.5t128 -186.5q0 -39 -25.5 -67.5t-62.5 -28.5q-49 0 -130 73.5t-120 73.5q-36 0 -151 -63l-49 -25q-47 -27 -80 -41t-51 -14 q-37 0 -66 24.5t-29 61.5z" />
<glyph unicode="&#xef;" horiz-adv-x="757" d="M2 1288q0 96 131 154.5t242 58.5q53 0 96 -25.5t43 -74.5q0 -68 -100 -135q-117 -74 -256 -74q-59 0 -107.5 22.5t-48.5 73.5zM110.5 807q0.5 41 30 73.5t56 47t75.5 35.5q203 86 357 86q92 0 92 -95q0 -65 -45 -354l-25 -164q-16 -106 -16 -110q0 -27 12 -33t43 -6 q25 0 36 -2t21.5 -14.5t10.5 -34.5q0 -82 -129 -158q-154 -92 -312 -92q-63 0 -114 35.5t-51 97.5q0 37 12 114l53 349q16 106 16 110q0 25 -9 34t-34 9q-43 0 -53 8q-27 23 -26.5 64zM616 1288q0 96 131.5 154.5t243.5 58.5q51 0 94 -26.5t43 -73.5q0 -68 -100 -135 q-117 -74 -254 -74q-59 0 -108.5 22.5t-49.5 73.5z" />
<glyph unicode="&#xf0;" horiz-adv-x="1251" d="M96 387q0 326 107.5 468t316.5 142q74 0 111 -6q61 -10 71 -10q25 0 25 31q0 10 -11 29.5t-27.5 41t-20.5 29.5q-12 23 -41 23q-18 0 -97 -29q-76 -31 -110 -31q-23 0 -68 49q-12 14 -12 35q0 16 109 58q84 33 83 45q0 14 -23.5 39.5t-23.5 46.5q0 39 117 77.5t172 38.5 q61 0 135 -61q12 -10 31 -10q14 0 31 10l116 55q41 18 64 19q14 0 38.5 -18.5t35.5 -37.5q18 -31 18 -43q0 -10 -31 -22l-73 -35q-68 -35 -68 -47q0 -8 5 -15.5t18.5 -18.5t23.5 -21q168 -180 164 -568q-2 -129 -54 -257t-143 -220q-195 -201 -503 -201q-215 0 -350.5 102.5 t-135.5 311.5zM582 285q-1 -95 65 -95q14 0 26.5 4.5t22 13.5t16.5 16t14 23.5t11 25t9.5 27.5t6.5 25.5t5 27t4 22.5q49 250 49 366q0 100 -68 101q-14 0 -26 -4t-21.5 -13.5t-17.5 -18.5t-15.5 -24.5t-11.5 -26t-9 -29.5t-8 -27.5t-7 -28t-4 -23.5q-41 -201 -41 -362z" />
<glyph unicode="&#xf1;" horiz-adv-x="1368" d="M96.5 811q-0.5 66 104.5 123q68 41 184.5 77t187.5 36q43 0 64.5 -28t26 -62.5t13.5 -62.5t30 -28q18 0 80.5 46t150.5 91.5t166 45.5q94 0 163.5 -53.5t69.5 -145.5q0 -76 -35.5 -266.5t-35.5 -249.5q0 -27 15 -40t33.5 -15.5t34 -15.5t15.5 -40q0 -70 -84 -127 t-180 -83.5t-162 -26.5q-147 0 -147 137q0 47 9 106.5t23.5 131t20.5 106.5l24 182q0 66 -57 66q-35 0 -64.5 -21.5t-49 -66.5t-32 -82t-22.5 -100.5t-12 -88t-8 -77.5q-16 -172 -76 -227.5t-254 -65.5q-150 -8 -150 106q0 39 46.5 263.5t41.5 324.5q0 66 -57 65h-20 q-57 0 -57.5 66zM393 1284q0 109 63.5 172.5t172.5 63.5q90 0 223 -59.5t147 -59.5q19 0 19 29q8 92 129 92q127 0 127 -117q0 -98 -60.5 -168t-156.5 -70q-66 0 -219.5 65.5t-190.5 65.5q-18 0 -22 -34q0 -47 -21 -64q-29 -27 -84 -26q-127 0 -127 110z" />
<glyph unicode="&#xf2;" horiz-adv-x="1251" d="M88 379q0 291 202 485.5t494 194.5q203 0 335 -106.5t132 -299.5q0 -291 -201.5 -485.5t-494.5 -194.5q-203 0 -335 106.5t-132 299.5zM446 1452q0 27 20.5 46.5t53.5 28.5t61.5 13t55.5 4q63 0 150 -23.5t87 -66.5q0 -8 -12 -33q-8 -16 -8 -22q0 -21 61 -82l18.5 -18.5 t20.5 -22.5t11.5 -20.5t7.5 -28.5q0 -33 -23.5 -52.5t-58.5 -19.5q-117 0 -281 95.5t-164 201.5zM555 285q0 -94 66 -95q14 0 26 4.5t21.5 13.5t16.5 16t14.5 23.5t11.5 25t9 27.5t6 25.5t5 27t4 22.5q49 250 49 366q1 101 -67 101q-14 0 -26.5 -4t-22 -13.5t-17.5 -18.5 t-15 -24.5t-11 -26t-9.5 -29.5t-8.5 -27.5t-7 -28t-4 -23.5q-41 -201 -41 -362z" />
<glyph unicode="&#xf3;" horiz-adv-x="1251" d="M88 379q0 291 202 485.5t494 194.5q203 0 335 -106.5t132 -299.5q0 -291 -201.5 -485.5t-494.5 -194.5q-203 0 -335 106.5t-132 299.5zM555 285q0 -94 66 -95q14 0 26 4.5t21.5 13.5t16.5 16t14.5 23.5t11.5 25t9 27.5t6 25.5t5 27t4 22.5q49 250 49 366q1 101 -67 101 q-14 0 -26.5 -4t-22 -13.5t-17.5 -18.5t-15 -24.5t-11 -26t-9.5 -29.5t-8.5 -27.5t-7 -28t-4 -23.5q-41 -201 -41 -362zM569 1227q0 10 3 20t10.5 20.5t11.5 16.5t16.5 18.5l14.5 14.5q61 55 61 82q0 10 -6 22q-12 25 -12 33q0 43 87 66.5t150 23.5q27 0 55.5 -4t61.5 -13 t53.5 -28.5t20.5 -46.5q0 -106 -164 -201.5t-281 -95.5q-35 0 -58.5 19.5t-23.5 52.5z" />
<glyph unicode="&#xf4;" horiz-adv-x="1251" d="M88 379q0 291 202 485.5t494 194.5q203 0 335 -106.5t132 -299.5q0 -291 -201.5 -485.5t-494.5 -194.5q-203 0 -335 106.5t-132 299.5zM389 1235q0 76 121 141q8 6 66.5 41t101.5 60.5t91 49t67 23.5q61 0 189 -122.5t128 -186.5q0 -39 -25.5 -67.5t-62.5 -28.5 q-49 0 -130 73.5t-120 73.5q-36 0 -151 -63l-50 -25q-47 -27 -79.5 -41t-51.5 -14q-37 0 -65.5 24.5t-28.5 61.5zM555 285q0 -94 66 -95q14 0 26 4.5t21.5 13.5t16.5 16t14.5 23.5t11.5 25t9 27.5t6 25.5t5 27t4 22.5q49 250 49 366q1 101 -67 101q-14 0 -26.5 -4t-22 -13.5 t-17.5 -18.5t-15 -24.5t-11 -26t-9.5 -29.5t-8.5 -27.5t-7 -28t-4 -23.5q-41 -201 -41 -362z" />
<glyph unicode="&#xf5;" horiz-adv-x="1251" d="M88 379q0 291 202 485.5t494 194.5q203 0 335 -106.5t132 -299.5q0 -291 -201.5 -485.5t-494.5 -194.5q-203 0 -335 106.5t-132 299.5zM336 1284q0 109 63.5 172.5t171.5 63.5q90 0 223.5 -59.5t147.5 -59.5q19 0 19 29q8 92 129 92q127 0 127 -117q0 -98 -60.5 -168 t-157.5 -70q-66 0 -219 65.5t-190 65.5q-18 0 -23 -34q0 -47 -20 -64q-29 -27 -84 -26q-127 0 -127 110zM555 285q0 -94 66 -95q14 0 26 4.5t21.5 13.5t16.5 16t14.5 23.5t11.5 25t9 27.5t6 25.5t5 27t4 22.5q49 250 49 366q1 101 -67 101q-14 0 -26.5 -4t-22 -13.5 t-17.5 -18.5t-15 -24.5t-11 -26t-9.5 -29.5t-8.5 -27.5t-7 -28t-4 -23.5q-41 -201 -41 -362z" />
<glyph unicode="&#xf6;" horiz-adv-x="1251" d="M88 379q0 291 202 485.5t494 194.5q203 0 335 -106.5t132 -299.5q0 -291 -201.5 -485.5t-494.5 -194.5q-203 0 -335 106.5t-132 299.5zM250 1288q0 96 131 154.5t242 58.5q53 0 96 -25.5t43 -74.5q0 -68 -100 -135q-117 -74 -256 -74q-59 0 -107.5 22.5t-48.5 73.5z M555 285q0 -94 66 -95q14 0 26 4.5t21.5 13.5t16.5 16t14.5 23.5t11.5 25t9 27.5t6 25.5t5 27t4 22.5q49 250 49 366q1 101 -67 101q-14 0 -26.5 -4t-22 -13.5t-17.5 -18.5t-15 -24.5t-11 -26t-9.5 -29.5t-8.5 -27.5t-7 -28t-4 -23.5q-41 -201 -41 -362zM864 1288 q0 96 131 154.5t244 58.5q51 0 94 -26.5t43 -73.5q0 -68 -100 -135q-117 -74 -254 -74q-59 0 -108.5 22.5t-49.5 73.5z" />
<glyph unicode="&#xf7;" d="M150 524q0 45 5 69.5t23.5 35t32.5 12.5t53 2h19h725h18q37 0 52.5 -2t33.5 -12.5t23.5 -35t5.5 -69.5t-5.5 -69.5t-23.5 -34.5t-32.5 -12t-53.5 -2h-18h-725h-19q-37 0 -52 2t-33.5 12t-23.5 34.5t-5 69.5zM492 182.5q0 63.5 45 108.5t108.5 45t108.5 -45t45 -108.5 t-45 -108.5t-108.5 -45t-108.5 45t-45 108.5zM492 866.5q0 63.5 45 108.5t108.5 45t108.5 -45t45 -108.5t-45 -108.5t-108.5 -45t-108.5 45t-45 108.5z" />
<glyph unicode="&#xf8;" horiz-adv-x="1251" d="M6 80q0 8 3 15t9.5 14.5t12.5 12.5t15 12t14.5 11.5t15.5 10.5t12 8l43 31q-43 92 -43 184q0 291 202 485.5t494 194.5q219 0 365 -129l86 67q35 27 55.5 27t36.5 -20.5t16 -40.5q0 -10 -5 -20.5t-17 -21t-19.5 -17.5t-22.5 -17.5t-17 -12.5l-56 -34q45 -61 45 -187 q0 -291 -201.5 -485.5t-494.5 -194.5q-90 0 -192.5 31t-165.5 98l-31 -24q-4 -2 -27.5 -20.5t-43 -29t-34.5 -10.5q-23 0 -39 19.5t-16 42.5zM554 321.5q-1 -28.5 1 -46t7 -40t20.5 -34t38.5 -11.5q12 0 23 4.5t19.5 8.5t16.5 15l12 16.5t11.5 21.5t8.5 20.5t7 21.5t6 19 l35 199l-205 -160q0 -6 -1 -34.5zM573 518l5 -4l204 168q0 6 1 39t0 46t-7 34.5t-20.5 31t-38.5 9.5q-31 0 -54.5 -25.5t-39 -70t-23.5 -82t-16.5 -86t-10.5 -60.5z" />
<glyph unicode="&#xf9;" horiz-adv-x="1394" d="M102 793q0 88 177 170q178 84 329 84q104 0 105 -117q0 -37 -9.5 -99.5t-29 -166t-21.5 -115.5q0 -2 -4 -20.5t-7 -37t-6 -44t-1 -47t6 -40t15.5 -30t29.5 -11.5q76 0 135 132q35 78 50.5 197.5t32 207.5t54.5 121q39 35 124 53.5t155 18.5q119 0 119 -88q0 -16 -5 -55.5 t-5 -47.5l-70 -395q-12 -61 -12 -94q0 -61 63 -62q31 -2 41 -3t20.5 -13t10.5 -39q0 -72 -92.5 -137.5t-199 -97t-175.5 -31.5q-45 0 -67.5 28.5t-25.5 62.5t-14.5 62.5t-33.5 28.5q-14 0 -79 -47t-162 -93t-192 -42q-176 6 -182 211q-2 66 26.5 224.5t33.5 199.5 q10 39 3.5 70.5t-51.5 37.5q-27 2 -42 6t-29.5 18.5t-14.5 39.5zM477 1452q0 27 20.5 46.5t53.5 28.5t61.5 13t55.5 4q63 0 150 -23.5t87 -66.5q0 -8 -12 -33q-8 -16 -8 -22q0 -21 61 -82l18.5 -18.5t20.5 -22.5t11.5 -20.5t7.5 -28.5q0 -33 -24 -52.5t-58 -19.5 q-117 0 -281 95.5t-164 201.5z" />
<glyph unicode="&#xfa;" horiz-adv-x="1394" d="M102 793q0 88 177 170q178 84 329 84q104 0 105 -117q0 -37 -9.5 -99.5t-29 -166t-21.5 -115.5q0 -2 -4 -20.5t-7 -37t-6 -44t-1 -47t6 -40t15.5 -30t29.5 -11.5q76 0 135 132q35 78 50.5 197.5t32 207.5t54.5 121q39 35 124 53.5t155 18.5q119 0 119 -88q0 -16 -5 -55.5 t-5 -47.5l-70 -395q-12 -61 -12 -94q0 -61 63 -62q31 -2 41 -3t20.5 -13t10.5 -39q0 -72 -92.5 -137.5t-199 -97t-175.5 -31.5q-45 0 -67.5 28.5t-25.5 62.5t-14.5 62.5t-33.5 28.5q-14 0 -79 -47t-162 -93t-192 -42q-176 6 -182 211q-2 66 26.5 224.5t33.5 199.5 q10 39 3.5 70.5t-51.5 37.5q-27 2 -42 6t-29.5 18.5t-14.5 39.5zM641 1227q0 10 3 20t10.5 20.5t11.5 16.5t16 18.5t14 14.5q61 55 62 82q0 10 -6 22q-12 25 -13 33q0 43 87 66.5t151 23.5q27 0 55.5 -4t61 -13t53 -28.5t20.5 -46.5q0 -106 -163.5 -201.5t-280.5 -95.5 q-35 0 -58.5 19.5t-23.5 52.5z" />
<glyph unicode="&#xfb;" horiz-adv-x="1394" d="M102 793q0 88 177 170q178 84 329 84q104 0 105 -117q0 -37 -9.5 -99.5t-29 -166t-21.5 -115.5q0 -2 -4 -20.5t-7 -37t-6 -44t-1 -47t6 -40t15.5 -30t29.5 -11.5q76 0 135 132q35 78 50.5 197.5t32 207.5t54.5 121q39 35 124 53.5t155 18.5q119 0 119 -88q0 -16 -5 -55.5 t-5 -47.5l-70 -395q-12 -61 -12 -94q0 -61 63 -62q31 -2 41 -3t20.5 -13t10.5 -39q0 -72 -92.5 -137.5t-199 -97t-175.5 -31.5q-45 0 -67.5 28.5t-25.5 62.5t-14.5 62.5t-33.5 28.5q-14 0 -79 -47t-162 -93t-192 -42q-176 6 -182 211q-2 66 26.5 224.5t33.5 199.5 q10 39 3.5 70.5t-51.5 37.5q-27 2 -42 6t-29.5 18.5t-14.5 39.5zM461 1235q0 76 121 141q8 6 66.5 41t101.5 60.5t91 49t66 23.5q61 0 189.5 -122.5t128.5 -186.5q0 -39 -25.5 -67.5t-62.5 -28.5q-49 0 -130 73.5t-120 73.5q-37 0 -152 -63l-47 -25q-49 -27 -82 -41t-51 -14 q-37 0 -65.5 24.5t-28.5 61.5z" />
<glyph unicode="&#xfc;" horiz-adv-x="1394" d="M102 793q0 88 177 170q178 84 329 84q104 0 105 -117q0 -37 -9.5 -99.5t-29 -166t-21.5 -115.5q0 -2 -4 -20.5t-7 -37t-6 -44t-1 -47t6 -40t15.5 -30t29.5 -11.5q76 0 135 132q35 78 50.5 197.5t32 207.5t54.5 121q39 35 124 53.5t155 18.5q119 0 119 -88q0 -16 -5 -55.5 t-5 -47.5l-70 -395q-12 -61 -12 -94q0 -61 63 -62q31 -2 41 -3t20.5 -13t10.5 -39q0 -72 -92.5 -137.5t-199 -97t-175.5 -31.5q-45 0 -67.5 28.5t-25.5 62.5t-14.5 62.5t-33.5 28.5q-14 0 -79 -47t-162 -93t-192 -42q-176 6 -182 211q-2 66 26.5 224.5t33.5 199.5 q10 39 3.5 70.5t-51.5 37.5q-27 2 -42 6t-29.5 18.5t-14.5 39.5zM322 1288q0 96 131 154.5t241 58.5q53 0 96.5 -25.5t43.5 -74.5q0 -68 -101 -135q-117 -74 -256 -74q-59 0 -107 22.5t-48 73.5zM936 1288q0 96 131 154.5t244 58.5q51 0 94 -26.5t43 -73.5q0 -68 -100 -135 q-117 -74 -254 -74q-59 0 -108.5 22.5t-49.5 73.5z" />
<glyph unicode="&#xfd;" horiz-adv-x="1275" d="M57 -96q0 92 58.5 148.5t150.5 56.5q76 0 125 -42t49 -116q0 -16 -4 -51t-4 -54q0 -41 33 -41q45 0 71.5 51.5t24.5 98.5q-4 123 -111.5 404.5t-162.5 281.5q-14 0 -54 -35t-65 -35q-39 0 -68.5 39t-25.5 78q6 61 99 149.5t204.5 150t171.5 61.5q41 0 71.5 -14.5 t54 -49.5t35 -55.5t31.5 -69.5q18 -43 62.5 -177t81.5 -227.5t59 -99.5q35 -8 57.5 87.5t22.5 152.5q0 76 -47 157t-47 128q0 70 52 112.5t124 42.5q109 0 146.5 -75.5t37.5 -196.5q4 -170 -58.5 -368.5t-172 -377t-278.5 -297t-357 -118.5q-147 0 -257 79.5t-110 221.5z M623 1227q0 10 3 20t10 20.5l11 16.5t16.5 18.5l14.5 14.5q61 55 61 82q0 10 -6 22q-12 25 -12 33q0 43 87 66.5t150 23.5q27 0 55.5 -4t61.5 -13t53.5 -28.5t20.5 -46.5q0 -106 -164 -201.5t-280 -95.5q-35 0 -58.5 19.5t-23.5 52.5z" />
<glyph unicode="&#xfe;" horiz-adv-x="1318" d="M61 -213q0 31 11.5 47t42.5 41q51 41 61 119q96 707 96 1091q0 35 -2 47.5t-15 22.5t-44 12q-35 2 -50.5 6.5t-25.5 21.5t-10 52q0 41 25.5 71t52 42t73.5 29q70 27 181.5 51t173.5 24q59 0 83.5 -20.5t24.5 -77.5l-6 -76l-14 -131q0 -10 -10.5 -91t-10.5 -124 q0 -37 25 -37q12 0 52 38t104.5 77t136.5 39q143 0 212.5 -122t69.5 -275q0 -281 -160.5 -485t-351.5 -204q-39 0 -88 13q-45 12 -59 12q-27 0 -33 -38t0 -77t15 -55q8 -18 57 -43t49 -59q0 -115 -223 -115q-57 0 -118.5 6t-141.5 21.5t-131.5 53.5t-51.5 93zM616 254 q0 -63 50 -64q55 0 99 95.5t62.5 194t18.5 155.5q0 104 -66 104q-55 0 -95 -107.5t-54.5 -212t-14.5 -165.5z" />
<glyph unicode="&#xff;" horiz-adv-x="1275" d="M57 -96q0 92 58.5 148.5t150.5 56.5q76 0 125 -42t49 -116q0 -16 -4 -51t-4 -54q0 -41 33 -41q45 0 71.5 51.5t24.5 98.5q-4 123 -111.5 404.5t-162.5 281.5q-14 0 -54 -35t-65 -35q-39 0 -68.5 39t-25.5 78q6 61 99 149.5t204.5 150t171.5 61.5q41 0 71.5 -14.5 t54 -49.5t35 -55.5t31.5 -69.5q18 -43 62.5 -177t81.5 -227.5t59 -99.5q35 -8 57.5 87.5t22.5 152.5q0 76 -47 157t-47 128q0 70 52 112.5t124 42.5q109 0 146.5 -75.5t37.5 -196.5q4 -170 -58.5 -368.5t-172 -377t-278.5 -297t-357 -118.5q-147 0 -257 79.5t-110 221.5z M262 1288q0 96 131 154.5t242 58.5q53 0 96 -25.5t43 -74.5q0 -68 -100 -135q-117 -74 -256 -74q-59 0 -107.5 22.5t-48.5 73.5zM877 1288q0 96 131 154.5t243 58.5q51 0 94.5 -26.5t43.5 -73.5q0 -68 -101 -135q-117 -74 -254 -74q-59 0 -108 22.5t-49 73.5z" />
<glyph unicode="&#x152;" horiz-adv-x="2148" d="M90 547q0 240 121 451.5t330 338.5t448 127q74 0 203 -14q172 -14 174 -14h393q88 0 149.5 12t69.5 12q59 0 115.5 -86t56.5 -219q0 -63 -31.5 -110.5t-90.5 -47.5q-45 0 -72 20.5t-41 50.5t-32.5 60.5t-60.5 51t-110 20.5q-121 0 -150.5 -23.5t-39.5 -113.5l-13 -117 q-10 -59 -5 -77.5t50 -18.5q41 0 61.5 29.5t26 64.5t27 64.5t64.5 29.5q137 0 137 -256q0 -47 -8.5 -105.5t-27.5 -121.5t-56 -105t-88.5 -42t-72 32.5t-18 70.5t-12 70.5t-57.5 32.5q-37 0 -50.5 -38.5t-13.5 -124.5v-91q0 -96 17.5 -110t120.5 -14q88 0 148 27.5t88 66.5 t49.5 76.5t51 65.5t74.5 28q123 0 123 -164q0 -133 -76.5 -241.5t-140.5 -108.5q-2 0 -47 8q-74 6 -125 6h-403q-242 0 -428 -14q-43 -2 -92.5 -6.5t-80 -6.5t-51.5 -2q-285 0 -444.5 146.5t-159.5 429.5zM645 455q0 -248 129 -248q80 0 138.5 87t83 219t34.5 235.5 t10 187.5q1 254 -122 254q-86 0 -146.5 -99.5t-85 -244t-33 -239.5t-8.5 -152z" />
<glyph unicode="&#x153;" horiz-adv-x="1781" d="M98 379q0 291 202 485.5t495 194.5q74 0 167 -19.5t144 -52.5q16 -16 31 -16q2 0 39 14q147 74 346 74q123 0 204.5 -61.5t81.5 -182.5q0 -178 -162.5 -309t-345.5 -131q-80 0 -79 -43q0 -41 41 -66.5t84 -25.5q84 0 193.5 58t131.5 58q31 0 56.5 -27.5t25.5 -58.5 q0 -113 -221 -215q-184 -82 -354 -82q-123 -2 -258 54q-20 10 -35 10q-16 0 -41 -12q-117 -51 -279 -52q-203 0 -335 106.5t-132 299.5zM565 285q0 -94 66 -95q14 0 26.5 4.5t21.5 13.5l16 16t14.5 23.5t11.5 25t9 27.5t6 25.5t5 27t4 22.5q49 250 50 366q0 101 -68 101 q-14 0 -26.5 -4t-21.5 -13.5t-17.5 -18.5t-15.5 -24.5t-11 -26t-9 -29.5t-8.5 -27.5t-7.5 -28t-4 -23.5q-41 -201 -41 -362zM1217 600q0 -57 36 -57q45 0 100.5 89t51.5 161q-4 63 -47 63q-55 0 -98 -95t-43 -161z" />
<glyph unicode="&#x178;" horiz-adv-x="1441" d="M115 1305q0 84 105.5 115.5t395.5 31.5q160 0 218.5 -27.5t58.5 -91.5q0 -33 -14.5 -54.5t-32 -30.5t-31.5 -23.5t-14 -32.5q0 -31 42 -114t66 -85q20 -2 90 94.5t70 116.5q0 16 -35 52t-35 77q0 119 301 119q139 0 205 -25.5t66 -89.5q0 -49 -37 -69.5t-89 -32.5 t-73 -39l-239 -295q-98 -121 -118 -176t-28 -219l-8 -240q-2 -35 20.5 -51t50 -18t51 -19.5t23.5 -52.5q0 -20 -1 -30.5t-21.5 -35t-58 -38t-120.5 -25.5t-200 -12q-100 0 -157.5 3t-125 13t-98.5 36.5t-31 67.5q0 43 25.5 66t57.5 28t60.5 22.5t32.5 49.5l58 414 q-1 51 -56 141l-206 336q-23 29 -54.5 46.5t-55 23.5t-41 24.5t-17.5 49.5zM385 1651q0 96 131 154.5t242 58.5q53 0 96 -26t43 -75q0 -68 -100 -135q-117 -74 -256 -74q-59 0 -107.5 22.5t-48.5 74.5zM999 1651q0 96 131.5 154.5t243.5 58.5q51 0 94 -27t43 -74 q0 -68 -100 -135q-117 -74 -254 -74q-59 0 -108.5 22.5t-49.5 74.5z" />
<glyph unicode="&#x2c6;" horiz-adv-x="1050" d="M289 1235q0 76 121 141q8 6 66.5 41t101.5 60.5t91 49t66 23.5q61 0 189.5 -122.5t128.5 -186.5q0 -39 -26 -67.5t-62 -28.5q-49 0 -130 73.5t-120 73.5q-37 0 -152 -63l-47 -25q-49 -27 -82 -41t-51 -14q-37 0 -65.5 24.5t-28.5 61.5z" />
<glyph unicode="&#x2dc;" horiz-adv-x="1167" d="M293 1284q0 109 63.5 172.5t171.5 63.5q90 0 223.5 -59.5t147.5 -59.5q19 0 19 29q8 92 129 92q127 0 127 -117q0 -98 -60.5 -168t-157.5 -70q-66 0 -219 65.5t-190 65.5q-18 0 -23 -34q0 -47 -20 -64q-29 -27 -84 -26q-127 0 -127 110z" />
<glyph unicode="&#x2000;" horiz-adv-x="994" />
<glyph unicode="&#x2001;" horiz-adv-x="1989" />
<glyph unicode="&#x2002;" horiz-adv-x="994" />
<glyph unicode="&#x2003;" horiz-adv-x="1989" />
<glyph unicode="&#x2004;" horiz-adv-x="663" />
<glyph unicode="&#x2005;" horiz-adv-x="497" />
<glyph unicode="&#x2006;" horiz-adv-x="331" />
<glyph unicode="&#x2007;" horiz-adv-x="331" />
<glyph unicode="&#x2008;" horiz-adv-x="248" />
<glyph unicode="&#x2009;" horiz-adv-x="397" />
<glyph unicode="&#x200a;" horiz-adv-x="110" />
<glyph unicode="&#x2010;" horiz-adv-x="604" d="M43 426q4 90 58.5 214t121.5 116q8 -2 29 -2t29 -2l200 -15q37 0 85 6.5t52 6.5q35 0 35 -50q0 -74 -51 -207t-106 -128q-2 0 -21.5 2t-28.5 4q-162 10 -177 11t-183 -3q-47 0 -43 47z" />
<glyph unicode="&#x2011;" horiz-adv-x="604" d="M43 426q4 90 58.5 214t121.5 116q8 -2 29 -2t29 -2l200 -15q37 0 85 6.5t52 6.5q35 0 35 -50q0 -74 -51 -207t-106 -128q-2 0 -21.5 2t-28.5 4q-162 10 -177 11t-183 -3q-47 0 -43 47z" />
<glyph unicode="&#x2012;" horiz-adv-x="604" d="M43 426q4 90 58.5 214t121.5 116q8 -2 29 -2t29 -2l200 -15q37 0 85 6.5t52 6.5q35 0 35 -50q0 -74 -51 -207t-106 -128q-2 0 -21.5 2t-28.5 4q-162 10 -177 11t-183 -3q-47 0 -43 47z" />
<glyph unicode="&#x2013;" horiz-adv-x="1024" d="M-84 432q0 27 32 119t50 123q41 86 111 86q137 -11 489 -19h242q143 0 170 4q25 4 39 5q25 0 42 -16.5t17 -41.5q0 -61 -28.5 -148t-67.5 -138q-33 -43 -72 -44q-37 0 -69.5 2.5t-92 7.5t-116.5 9q-461 12 -672 -10q-31 0 -52.5 16t-21.5 45z" />
<glyph unicode="&#x2014;" horiz-adv-x="2048" d="M-82 432q2 6 15.5 59.5t26.5 92.5t33.5 86t50.5 71.5t65 18.5q77 -13 487 -19h1266q59 0 126.5 4.5t82.5 4.5q25 0 43 -16.5t18 -41.5q0 -70 -50 -201t-118 -131q-176 12 -278 17h-1666q-39 -6 -76.5 5t-25.5 50z" />
<glyph unicode="&#x2018;" horiz-adv-x="626" d="M184 922q-2 104 59.5 236t139.5 219t127 87q29 0 66.5 -35.5t37.5 -62.5q0 -23 -20 -47q-102 -134 -102 -193q0 -27 24.5 -47t53 -36.5t53 -61.5t24.5 -115q0 -102 -58.5 -161.5t-160.5 -59.5q-119 0 -180.5 77t-63.5 200z" />
<glyph unicode="&#x2019;" horiz-adv-x="626" d="M215 1243q0 102 58.5 161.5t160.5 59.5q119 0 180.5 -76.5t63.5 -199.5q2 -104 -59.5 -236.5t-139.5 -219.5t-127 -87q-29 0 -66.5 36t-37.5 62q0 23 20 48q103 133 103 192q0 27 -24.5 47.5t-53.5 36.5t-53.5 61.5t-24.5 114.5z" />
<glyph unicode="&#x201a;" horiz-adv-x="626" d="M86 215q0 102 58.5 161.5t160.5 59.5q119 0 180.5 -76.5t63.5 -199.5q2 -104 -59.5 -236.5t-139.5 -219.5t-127 -87q-29 0 -66.5 36t-37.5 62q0 23 20 47q103 134 103 193q0 27 -24.5 47.5t-53.5 36.5t-53.5 61t-24.5 115z" />
<glyph unicode="&#x201c;" horiz-adv-x="1159" d="M184 922q-2 104 59.5 236t139.5 219t127 87q29 0 66.5 -35.5t37.5 -62.5q0 -23 -20 -47q-102 -134 -102 -193q0 -27 24.5 -47t53 -36.5t53 -61.5t24.5 -115q0 -102 -58.5 -161.5t-160.5 -59.5q-119 0 -180.5 77t-63.5 200zM719 922q-2 104 59.5 236t139 219t126.5 87 q29 0 67 -35.5t38 -62.5q0 -23 -21 -47q-102 -134 -102 -193q0 -27 24.5 -47t53.5 -36.5t53.5 -61.5t24.5 -115q0 -102 -58.5 -161.5t-160.5 -59.5q-119 0 -180.5 77t-63.5 200z" />
<glyph unicode="&#x201d;" horiz-adv-x="1159" d="M215 1243q0 102 58.5 161.5t160.5 59.5q119 0 180.5 -76.5t63.5 -199.5q2 -104 -59.5 -236.5t-139.5 -219.5t-127 -87q-29 0 -66.5 36t-37.5 62q0 23 20 48q103 133 103 192q0 27 -24.5 47.5t-53.5 36.5t-53.5 61.5t-24.5 114.5zM750 1243q0 102 58 161.5t161 59.5 q119 0 180 -76.5t63 -199.5q2 -104 -59 -236.5t-139 -219.5t-127 -87q-29 0 -67 36t-38 62q0 23 21 48q102 133 102 192q0 27 -24.5 47.5t-53 36.5t-53 61.5t-24.5 114.5z" />
<glyph unicode="&#x201e;" horiz-adv-x="1159" d="M86 215q0 102 58.5 161.5t160.5 59.5q119 0 180.5 -76.5t63.5 -199.5q2 -104 -59.5 -236.5t-139.5 -219.5t-127 -87q-29 0 -66.5 36t-37.5 62q0 23 20 47q103 134 103 193q0 27 -24.5 47.5t-53.5 36.5t-53.5 61t-24.5 115zM621 215q0 102 58 161.5t161 59.5 q119 0 180 -76.5t63 -199.5q2 -104 -59 -236.5t-139 -219.5t-127 -87q-29 0 -67 36t-38 62q0 23 21 47q102 134 102 193q0 27 -24.5 47.5t-53 36.5t-53 61t-24.5 115z" />
<glyph unicode="&#x2022;" horiz-adv-x="1484" d="M485 716.5q0 149.5 104.5 254t254 104.5t254 -104.5t104.5 -254t-104.5 -254t-254 -104.5t-254 104.5t-104.5 254z" />
<glyph unicode="&#x2026;" horiz-adv-x="2048" d="M117 197q4 100 75.5 163.5t168 63.5t162 -63.5t61.5 -163.5q-4 -104 -76 -172t-168 -68t-161.5 67.5t-61.5 172.5zM799 197q4 100 75.5 163.5t168 63.5t162 -63.5t61.5 -163.5q-4 -104 -76 -172t-168 -68t-161.5 67.5t-61.5 172.5zM1481 197q4 100 75.5 163.5t168 63.5 t162 -63.5t61.5 -163.5q-4 -104 -76 -172t-168 -68t-161.5 67.5t-61.5 172.5z" />
<glyph unicode="&#x202f;" horiz-adv-x="397" />
<glyph unicode="&#x2039;" horiz-adv-x="626" d="M86 588q0 100 203 263t305 163q31 0 56.5 -25.5t25.5 -54.5q0 -51 -123 -186.5t-123 -190.5q0 -47 68.5 -184t68.5 -185q0 -35 -28.5 -58.5t-65.5 -23.5q-80 0 -233.5 199t-153.5 283z" />
<glyph unicode="&#x203a;" horiz-adv-x="626" d="M55 186q0 51 123 186.5t123 190.5q0 47 -68.5 184.5t-68.5 184.5q0 35 28.5 58.5t65.5 23.5q80 0 233.5 -199t153.5 -283q0 -100 -203 -263t-305 -163q-31 0 -56.5 26t-25.5 54z" />
<glyph unicode="&#x205f;" horiz-adv-x="497" />
<glyph unicode="&#x20ac;" d="M80 541q-16 27 6 75l31 66q16 35 36.5 45t75.5 10h27q82 215 253 356.5t374 141.5q49 0 88 -15.5t41 -15.5q8 0 29.5 13.5t43.5 13.5q74 0 127.5 -80t53.5 -174q0 -68 -40 -114t-106 -46q-49 0 -74.5 33t-32.5 72t-35 71.5t-79 32.5q-76 0 -131 -81t-88 -208h313 q51 0 66 -26q16 -27 -6 -76l-31 -66q-16 -33 -38.5 -44t-74.5 -11h-266v-20q0 -68 13.5 -129.5t54.5 -113.5t106 -52q51 0 86 31.5t51.5 70.5t47 70.5t75.5 31.5q66 0 95.5 -47t15.5 -112q-18 -94 -90 -175t-144 -81q-23 0 -42 14t-27 14q-4 0 -15.5 -2t-31 -6t-35.5 -6 q-82 -16 -146 -16q-190 0 -322 127t-132 340q0 10 1 30.5t1 30.5h-60q-51 0 -65 27z" />
<glyph unicode="&#x2122;" horiz-adv-x="2048" d="M61 1221q0 74 49.5 151.5t102.5 77.5q2 0 7 -1t13.5 -3t18.5 -2q49 -8 106 -8h291q61 0 92 10q37 8 47 8q53 0 98.5 -77t45.5 -144q0 -96 -92 -96q-35 0 -59.5 21.5t-37 47t-29 47t-36.5 21.5q-41 0 -41 -96v-310q0 -66 17.5 -97.5t37 -33.5t36.5 -14t17 -41 q0 -86 -243 -86q-281 0 -281 90q0 25 15.5 37t35 15t37 20.5t19.5 52.5l18 342q6 123 -37 123q-16 0 -35.5 -22.5t-36 -48t-44 -48t-60.5 -22.5t-52.5 25.5t-19.5 60.5zM952 662q0 18 10.5 28t23.5 13.5t27.5 17.5t20.5 43q18 74 19 397q0 78 -15.5 115t-33 39t-33 12 t-15.5 39q0 82 203 82q92 0 115.5 -13.5t54.5 -70.5l113 -207q2 -2 9 -17.5t12 -24.5t14.5 -17t19.5 -8q8 0 15.5 3t12.5 11t8 13t9 16.5t6 13.5l72 141l17.5 35t15.5 30l14 24.5t15.5 21.5t15.5 15t18 14.5t21.5 8.5t29 7t34 3t42.5 1q170 0 170 -76q0 -25 -10 -37 t-23.5 -16t-25.5 -25.5t-15 -62.5q-10 -154 -10 -182q0 -37 5 -107t5 -106q0 -51 12.5 -81t26 -35t25.5 -16.5t12 -31.5q0 -76 -213 -76q-211 0 -211 72q0 20 30 42.5t38 61.5q8 35 8 120t-27 85q-35 0 -86 -131l-61 -135q-2 -4 -7 -16.5t-10.5 -21.5t-12.5 -20.5t-15 -17.5 t-16.5 -6t-14.5 2t-12 8t-10 12t-11.5 20.5t-12.5 28t-16.5 39t-21.5 47.5l-69 154q-18 51 -41 51q-18 0 -21.5 -23.5t-3.5 -97.5v-49q0 -49 8 -76.5t19.5 -35t21.5 -9.5t18.5 -9t8.5 -25q0 -70 -172 -70q-150 0 -150 66z" />
<glyph unicode="&#x25fc;" horiz-adv-x="1044" d="M0 0v1044h1044v-1044h-1044z" />
<glyph unicode="&#xfb01;" horiz-adv-x="1593" d="M102 -244q0 43 37 76q18 16 28.5 32.5t13.5 25t8.5 37t9.5 42.5q96 412 96 611q0 14 -5 24t-9.5 15.5t-17.5 8.5t-18 3h-23.5h-22.5q-51 0 -66.5 7t-15.5 32q0 12 4 61l6 68q0 6 2 17t3 15.5t3 11.5t6 9t12.5 4t18.5 2t29.5 -1t30 -1t22.5 2t17 8t5 17q0 16 -23.5 42.5 t-46 77t-22.5 121.5q0 160 134.5 252t299.5 92q109 0 196 -56t87 -161q0 -74 -45 -126t-119 -52q-53 0 -90 18.5t-86 61.5q-2 2 -15.5 13.5t-20.5 16.5t-19 11t-23 6q-25 0 -39 -17.5t-14 -39.5q0 -37 26.5 -63.5t65.5 -37.5q59 -16 94 -29.5t78 -45t60 -76.5q4 -10 5 -14.5 t5 -9.5t5 -6t7 -2t8 -1h12.5h16.5q53 0 61.5 -8.5t4.5 -61.5l-7 -92q-2 -53 -12 -61q-12 -6 -43 -6q-43 -2 -54 -15.5t-20 -62.5l-79 -631v-38v-41t-3.5 -32.5t-10.5 -35t-19.5 -27.5t-30.5 -29q-47 -33 -146.5 -58.5t-162.5 -25.5q-72 0 -130.5 30t-58.5 93zM942 807 q0 41 29.5 73.5t56.5 47t76 35.5q203 86 356 86q92 0 92 -95q0 -47 -34 -290q-27 -147 -52 -338q-2 -27 11.5 -33t44.5 -6q25 0 36 -2t21 -14.5t10 -34.5q0 -72 -88 -132.5t-187.5 -89t-164.5 -28.5q-63 0 -114.5 35.5t-51.5 97.5q0 36 12 114l54 349q18 106 18 112 q0 41 -45 41q-18 0 -26.5 1t-24 7.5t-22.5 21.5t-7 42zM1024 1245q0 76 81 135.5t175 86t168 26.5q68 0 120 -28.5t50 -88.5q0 -70 -79 -130t-173 -88.5t-160 -24.5q-182 10 -182 112z" />
<glyph unicode="&#xfb02;" horiz-adv-x="1654" d="M102 -244q0 43 37 76q18 16 28.5 32.5t13.5 25t8.5 37t9.5 42.5q96 412 96 611q0 14 -5 24t-9.5 15.5t-17.5 8.5t-18 3h-23.5h-22.5q-51 0 -66.5 7t-15.5 32q0 12 4 61l6 68q0 6 2 17t3 15.5t3 11.5t6 9t12.5 4t18.5 2t29.5 -1t30 -1t22.5 2t17 8t5 17q0 16 -23.5 42.5 t-46 77t-22.5 121.5q0 160 134.5 252t299.5 92q109 0 196 -56t87 -161q0 -74 -45 -126t-119 -52q-53 0 -90 18.5t-86 61.5q-2 2 -15.5 13.5t-20.5 16.5t-19 11t-23 6q-25 0 -39 -17.5t-14 -39.5q0 -37 26.5 -63.5t65.5 -37.5q59 -16 94 -29.5t78 -45t60 -76.5q4 -10 5 -14.5 t5 -9.5t5 -6t7 -2t8 -1h12.5h16.5q53 0 61.5 -8.5t4.5 -61.5l-7 -92q-2 -53 -12 -61q-12 -6 -43 -6q-43 -2 -54 -15.5t-20 -62.5l-79 -631v-38v-41t-3.5 -32.5t-10.5 -35t-19.5 -27.5t-30.5 -29q-47 -33 -146.5 -58.5t-162.5 -25.5q-72 0 -130.5 30t-58.5 93zM983 1237 q0 37 14.5 64.5t44 46t53 28.5t64.5 23q201 66 340 65q59 0 88 -20.5t29 -77.5l-109 -991q0 -72 35 -72q10 0 30.5 3t31.5 3q45 0 45 -63q0 -78 -91.5 -141.5t-196 -91t-179.5 -27.5q-182 0 -166 198q16 193 63 536t56 413q6 49 -39 49q-8 0 -24.5 -2t-24.5 -2q-63 0 -64 59 z" />
</font>
</defs>
</svg>
